Thread Rating:
  • 0 Vote(s) - 0 Average
  • 1
  • 2
  • 3
  • 4
  • 5
[No Longer Available] Phantoms (1998) Regrade and Video Fix (Quick Project)
#11
Ok I fixed the sync at the end and resent the links to people

MKV Pics (Final)
[Image: naI6wte.jpg]

Mediainfo
Format : Matroska
Format version : Version 4 / Version 2
File size : 14.7 GiB
Duration : 1 h 36 min
Overall bit rate mode : Variable
Overall bit rate : 21.9 Mb/s
Encoded date : UTC 2017-06-26 01:14:13
Writing application : mkvmerge v7.9.0 ('Birds') 64bit
Writing library : libebml v1.3.1 + libmatroska v1.4.2

Video
ID : 1
Format : AVC
Format/Info : Advanced Video Codec
Format profile : High@L4.1
Format settings, CABAC : Yes
Format settings, ReFrames : 4 frames
Codec ID : V_MPEG4/ISO/AVC
Duration : 1 h 36 min
Bit rate mode : Variable
Bit rate : 20.0 Mb/s
Maximum bit rate : 40.0 Mb/s
Width : 1 920 pixels
Height : 1 080 pixels
Display aspect ratio : 16:9
Frame rate mode : Constant
Frame rate : 23.976 (24000/1001) FPS
Color space : YUV
Chroma subsampling : 4:2:0
Bit depth : 8 bits
Scan type : Progressive
Bits/(Pixel*Frame) : 0.402
Stream size : 13.3 GiB (90%)
Title : Phantoms (Regrade and Fix)
Writing library : x264 core 146 r2538 121396c
Encoding settings : cabac=1 / ref=4 / deblock=1:-1:-1 / analyse=0x3:0x113 / me=umh / subme=8 / psy=1 / psy_rd=1.00:0.15 / mixed_ref=1 / me_range=16 / chroma_me=1 / trellis=1 / 8x8dct=1 / cqm=0 / deadzone=21,11 / fast_pskip=1 / chroma_qp_offset=-3 / threads=12 / lookahead_threads=2 / sliced_threads=0 / slices=4 / nr=0 / decimate=1 / interlaced=0 / bluray_compat=1 / constrained_intra=0 / bframes=3 / b_pyramid=0 / b_adapt=2 / b_bias=0 / direct=3 / weightb=1 / open_gop=1 / weightp=1 / keyint=23 / keyint_min=1 / scenecut=40 / intra_refresh=0 / rc_lookahead=23 / rc=2pass / mbtree=1 / bitrate=20000 / ratetol=1.0 / qcomp=0.60 / qpmin=0 / qpmax=69 / qpstep=4 / cplxblur=20.0 / qblur=0.5 / vbv_maxrate=40000 / vbv_bufsize=30000 / nal_hrd=vbr / filler=0 / ip_ratio=1.40 / aq=1:1.00
Language : English
Default : Yes
Forced : No
Color range : Limited
Color primaries : BT.709
Transfer characteristics : BT.709
Matrix coefficients : BT.709

Audio
ID : 2
Format : DTS
Format/Info : Digital Theater Systems
Format profile : MA / Core
Mode : 16
Format settings, Endianness : Big
Codec ID : A_DTS
Duration : 1 h 36 min
Bit rate mode : Variable / Constant
Bit rate : 2 112 kb/s / 1 509 kb/s
Channel(s) : 6 channels
Channel positions : Front: L C R, Side: L R, LFE
Sampling rate : 48.0 kHz
Frame rate : 93.750 FPS (512 spf)
Bit depth : 16 bits
Compression mode : Lossless / Lossy
Stream size : 1.42 GiB (10%)
Title : DTS-HD MA 5.1
Language : English
Default : Yes
Forced : No

Menu
00:00:00.000 : en:Chapter 00
00:06:51.811 : en:Chapter 01
00:15:29.929 : en:Chapter 02
00:22:12.331 : en:Chapter 03
00:28:11.690 : en:Chapter 04
00:33:31.009 : en:Chapter 05
00:39:41.379 : en:Chapter 06
00:47:44.862 : en:Chapter 07
00:54:27.264 : en:Chapter 08
01:01:00.990 : en:Chapter 09
01:06:21.978 : en:Chapter 10
01:12:12.328 : en:Chapter 11
01:17:47.663 : en:Chapter 12
01:21:34.890 : en:Chapter 13
01:29:08.343 : en:Chapter 14
New, low or non-posting members: Please do not post or PM me asking where to get something or what the current status of a project is. Such requests are ignored. Instead, stick around and become a participating member. Thank you.

Reply
Thanks given by: applesandrice
#12
Last call for this as I need the space back. It most likely will not show up anywhere else.
New, low or non-posting members: Please do not post or PM me asking where to get something or what the current status of a project is. Such requests are ignored. Instead, stick around and become a participating member. Thank you.

Reply
Thanks given by: applesandrice
#13
Thanks again for this, PDB! I showed it to my wife the other night, and really enjoyed it. Great job, as always!
Reply
Thanks given by:
#14
(2017-08-02, 06:46 PM)applesandrice Wrote: Thanks again for this, PDB! I showed it to my wife the other night, and really enjoyed it. Great job,  as always!

Thanks that makes me very happy to hear!
New, low or non-posting members: Please do not post or PM me asking where to get something or what the current status of a project is. Such requests are ignored. Instead, stick around and become a participating member. Thank you.

Reply
Thanks given by:
#15
I'd like this, too, if it's not too late.
Reply
Thanks given by:
#16
(2017-08-03, 07:10 PM)Koopa Luath Wrote: I'd like this, too, if it's not too late.

Not too late, just PM me.
New, low or non-posting members: Please do not post or PM me asking where to get something or what the current status of a project is. Such requests are ignored. Instead, stick around and become a participating member. Thank you.

Reply
Thanks given by:
#17
Thanks for all the downloads. Project has now been removed.
New, low or non-posting members: Please do not post or PM me asking where to get something or what the current status of a project is. Such requests are ignored. Instead, stick around and become a participating member. Thank you.

Reply
Thanks given by: applesandrice
#18
Dang... I wasn't able to re-download it. Mega is quiet annoying with their bandwidth capping Undecided
Reply
Thanks given by:
#19
Anyone?
Reply
Thanks given by:
#20
I’m not even sure I have this project anymore.
New, low or non-posting members: Please do not post or PM me asking where to get something or what the current status of a project is. Such requests are ignored. Instead, stick around and become a participating member. Thank you.

Reply
Thanks given by:


Possibly Related Threads…
Thread Author Replies Views Last Post
Video Star Trek: The Motion Picture - Special Longer Version HD Recreation TheLoon 27 2,557 2021-01-18, 12:02 PM
Last Post: TheLoon
  [Released] HALLOWEEN: Evil Waits (2013 regrade with new prologue and original mono audio) pipefan413 7 1,614 2021-01-17, 06:01 PM
Last Post: pipefan413
  Conan The Barbarian Theatrical Cut (Project CRT #1 v1.0) PDB 6 586 2021-01-03, 05:01 PM
Last Post: Samourai
  [Released] A Better Tomorrow regrade Serums 12 1,201 2020-11-25, 09:37 PM
Last Post: thet50
  [No Longer Available]Aliens SE, TV and Theatrical Cut (Japanese WOWOW HDTV Broadcast) PDB 74 12,565 2020-10-25, 01:35 AM
Last Post: asterisk8
  [No Longer Available] Top Gun Open Matte (Quick Project) PDB 74 18,093 2020-10-19, 03:52 PM
Last Post: Inq81
  Hard Boiled - Japanese BD Regrade sanjuro_61 5 377 2020-10-08, 10:05 AM
Last Post: Serums
  [No Longer Available] Alien Regrade (Fox THX Laserdisc) PDB 262 200,657 2020-09-16, 11:54 PM
Last Post: daywalker
  Hong Kong Rescue #6: Project A jrodefeld 5 614 2020-08-20, 05:13 AM
Last Post: Serums
  [No Longer Available] Quantum Of Solace Open Matte PDB 29 6,457 2020-06-24, 05:42 PM
Last Post: natalizio

Forum Jump:


Users browsing this thread: 1 Guest(s)