Thread Rating:
  • 0 Vote(s) - 0 Average
  • 1
  • 2
  • 3
  • 4
  • 5
Skyfall - HDTV (Open Matte??) Airing this weekend
#11
(2017-09-10, 04:01 PM)Colek Wrote: I am doing capture of Spectre right now - Open Matte - from polish Canal+ Film.

Very cool! I didn't realize there was an open matte version of this film.
Reply
Thanks given by:
#12
Cool! Been wanting to see it open matte for a long time! I even paid to see it again in IMAX, and was awarded with the same old widescreen copy. I was pissed!
Reply
Thanks given by:
#13
(2017-09-11, 05:03 PM)Stamper Wrote: Cool! Been wanting to see it open matte for a long time! I even paid to see it again in IMAX, and was awarded with the same old widescreen copy. I was pissed!

I was of the same opinion... Was really looking forward to something like Skyfall, but alas... Disappointment! Undecided
Reply
Thanks given by:
#14
https://www.youtube.com/watch?v=Kk2xeJn_jE0

There's preview of this airing here, I sadly failed recording this completely, but it seems to be re-ran pretty often, so I'll do as many caps as possible and just combine into one Tongue
Reply
Thanks given by: nafroe
#15
(2017-09-12, 03:47 PM)Colek Wrote: I sadly failed recording this completely, but it seems to be re-ran pretty often, so I'll do as many caps as possible and just combine into one Tongue

Eek 

You should fix this... Happy
Reply
Thanks given by:
#16
I have a personal cap of Skyfall Open Matte from SkyHd Movies without logo, commercial breaks etc but the bitrate isn't that high (used a have a higher bitrate from Sky but lost it in a hard drive crash along with other higher bitrate caps).. I also have personal caps of both Casino Royale and Quantum of Solace Open Matte from ITV2 HD with logo and minimal edits for commercial breaks.

Would love to get the Open Matte Spectre, Colek, when you have managed to cap it fully.
Reply
Thanks given by: Stamper , dvdmike
#17
Dug my Skyfall Open Matte up, heres the Mediainfo:

General
ID : 1 (0x1)
Complete name : Sky ShowcseHD (AC3,eng)_Skyfall.ts
Format : MPEG-TS
File size : 6.10 GiB
Duration : 2 h 17 min
Overall bit rate mode : Variable
Overall bit rate : 6 358 kb/s

Video
ID : 33 (0x21)
Menu ID : 1 (0x1)
Format : AVC
Format/Info : Advanced Video Codec
Format profile : Main@L4
Format settings : CABAC / 4 Ref Frames
Format settings, CABAC : Yes
Format settings, RefFrames : 4 frames
Format settings, GOP : M=4, N=12
Codec ID : 27
Duration : 2 h 17 min
Bit rate : 5 656 kb/s
Width : 1 920 pixels
Height : 1 080 pixels
Display aspect ratio : 16:9
Frame rate : 25.000 FPS
Color space : YUV
Chroma subsampling : 4:2:0
Bit depth : 8 bits
Scan type : Interlaced
Scan type, store method : Separated fields
Scan order : Top Field First
Bits/(Pixel*Frame) : 0.109
Stream size : 5.42 GiB (89%)
Color range : Limited
Color primaries : BT.709
Transfer characteristics : BT.709
Matrix coefficients : BT.709

Audio
ID : 36 (0x24)
Menu ID : 1 (0x1)
Format : AC-3
Format/Info : Audio Coding 3
Format settings, Endianness : Big
Codec ID : 6
Duration : 2 h 17 min
Bit rate mode : Constant
Bit rate : 384 kb/s
Channel(s) : 2 channels
Channel positions : Front: L R
Sampling rate : 48.0 kHz
Frame rate : 31.250 FPS (1536 SPF)
Bit depth : 16 bits
Compression mode : Lossy
Stream size : 377 MiB (6%)
Language : English
Service kind : Complete Main
Reply
Thanks given by:
#18
(2017-10-01, 08:13 PM)X5gb Wrote: I have a personal cap of Skyfall Open Matte from SkyHd Movies without logo, commercial breaks etc but the bitrate isn't that high (used a have a higher bitrate from Sky but lost it in a hard drive crash along with other higher bitrate caps).. I also have personal caps of both Casino Royale and Quantum of Solace Open Matte from ITV2 HD with logo and minimal edits for commercial breaks.

Would love to get the Open Matte Spectre, Colek, when you have managed to cap it fully.

Do you have a way to share your Skyfall rip? It would be most appreciated if possible. Big Grin
Reply
Thanks given by:
#19
Those caps sound wonderful! Casino Royale as well too, if you have the time. Smile
Reply
Thanks given by:
#20
Quantum of Solace HDTV rip from Megahit TV overlays pretty nicely with Bluray, needing some manual adjustments on some scenes and color correction on most of movie (sometimes slight, sometimes a lot). Logo is very minimal, could be removed with some other HDTV capture or just blurred, since there's not much left there.

[Image: Quantum_of_Solace.png]

[Image: Quantum_of_Solace2.png]

[Image: Quantum_of_Solace5.png]

[Image: Quantum_of_Solace3.png]

[Image: Quantum_of_Solace4.png]

Just doing this for fun for now, nothing special.
Reply
Thanks given by: nafroe


Forum Jump:


Users browsing this thread: 1 Guest(s)