Thread Rating:
  • 1 Vote(s) - 5 Average
  • 1
  • 2
  • 3
  • 4
  • 5
[Fan edit] Michael Jackson's Ghosts (1997) [spoRv]
#1
Michael Jackson's GHOSTS
[Image: Michael_Jackson_s_Ghosts.jpg]
Source: HDTV MPEG-2
Video: 1080p 1440x1080 4:3 active image, embedded in 1920x1080 16:9 video, AVC 25mbps (40mbps max)
Audio: AC-3 448kbps stereo
Subs: English, Spanish, Italian, Russian
Chapters: yes
Runtime: 39m52s
Notes: magenta blanked removed, contrast improved, deblocked, 35mm grain plate added

Screenshots:
[Image: MJG_01657_spo_Rv.png]

[Image: MJG_13958_spo_Rv.png]

[Image: MJG_26898_spo_Rv.png]

[Image: MJG_38774_spo_Rv.png]

Comparison image:

[Image: MJG_comparison.jpg]

Screenshot comparisons: http://screenshotcomparison.com/comparison/216296

Mediainfo
Code:
Complete name                            :Michael_Jackson's_Ghosts_[spoRv].mkv
Format                                   : Matroska
Format version                           : Version 4 / Version 2
File size                                : 7.08 GiB
Duration                                 : 39 min 51 s
Overall bit rate mode                    : Variable
Overall bit rate                         : 25.4 Mb/s
Encoded date                             : UTC 2017-07-19 13:23:36
Writing application                      : mkvmerge v9.6.0 ('Slave To Your Mind') 32bit
Writing library                          : libebml v1.3.4 + libmatroska v1.4.5
Attachments                              : Michael_Jackson's_Ghosts.jpg

Video
ID                                       : 1
Format                                   : AVC
Format/Info                              : Advanced Video Codec
Format profile                           : High@L4.1
Format settings, CABAC                   : Yes
Format settings, ReFrames                : 4 frames
Codec ID                                 : V_MPEG4/ISO/AVC
Duration                                 : 39 min 51 s
Bit rate mode                            : Variable
Bit rate                                 : 25.0 Mb/s
Maximum bit rate                         : 40.0 Mb/s
Width                                    : 1 920 pixels
Height                                   : 1 080 pixels
Display aspect ratio                     : 16:9
Frame rate mode                          : Constant
Frame rate                               : 23.976 (23976/1000) FPS
Original frame rate                      : 23.976 (24000/1001) FPS
Color space                              : YUV
Chroma subsampling                       : 4:2:0
Bit depth                                : 8 bits
Scan type                                : Progressive
Bits/(Pixel*Frame)                       : 0.503
Stream size                              : 6.96 GiB (98%)
Title                                    : Michael Jackson's Ghost
Language                                 : English
Default                                  : Yes
Forced                                   : Yes
Color range                              : Limited
Color primaries                          : BT.709
Transfer characteristics                 : BT.709
Matrix coefficients                      : BT.709

Audio
ID                                       : 2
Format                                   : AC-3
Format/Info                              : Audio Coding 3
Mode extension                           : CM (complete main)
Format settings, Endianness              : Big
Codec ID                                 : A_AC3
Duration                                 : 39 min 51 s
Bit rate mode                            : Constant
Bit rate                                 : 448 kb/s
Channel(s)                               : 2 channels
Channel positions                        : Front: L R
Sampling rate                            : 48.0 kHz
Frame rate                               : 31.250 FPS (1536 spf)
Bit depth                                : 16 bits
Compression mode                         : Lossy
Stream size                              : 128 MiB (2%)
Title                                    : English audio
Language                                 : English
Default                                  : Yes
Forced                                   : Yes

Text #1
ID                                       : 3
Format                                   : UTF-8
Codec ID                                 : S_TEXT/UTF8
Codec ID/Info                            : UTF-8 Plain Text
Duration                                 : 33 min 2 s
Bit rate                                 : 11 b/s
Count of elements                        : 116
Stream size                              : 2.88 KiB (0%)
Title                                    : English subtitles
Language                                 : English
Default                                  : No
Forced                                   : No

Text #2
ID                                       : 4
Format                                   : UTF-8
Codec ID                                 : S_TEXT/UTF8
Codec ID/Info                            : UTF-8 Plain Text
Duration                                 : 32 min 50 s
Bit rate                                 : 12 b/s
Count of elements                        : 119
Stream size                              : 2.95 KiB (0%)
Title                                    : Spanish subtitles
Language                                 : Spanish
Default                                  : No
Forced                                   : No

Text #3
ID                                       : 5
Format                                   : UTF-8
Codec ID                                 : S_TEXT/UTF8
Codec ID/Info                            : UTF-8 Plain Text
Duration                                 : 33 min 1 s
Bit rate                                 : 13 b/s
Count of elements                        : 126
Stream size                              : 3.16 KiB (0%)
Title                                    : Italian subtitles
Language                                 : Italian
Default                                  : No
Forced                                   : No

Text #4
ID                                       : 6
Format                                   : UTF-8
Codec ID                                 : S_TEXT/UTF8
Codec ID/Info                            : UTF-8 Plain Text
Duration                                 : 33 min 14 s
Bit rate                                 : 40 b/s
Count of elements                        : 188
Stream size                              : 9.78 KiB (0%)
Title                                    : Russian subtitles
Language                                 : Russian
Default                                  : No
Forced                                   : No

Menu
00:00:00.000                             : :Opening Credits
00:00:11.000                             : :MICHAEL JACKSON'S GHOSTS
00:02:28.000                             : :Entering The Hall
00:08:26.388                             : :"2 Bad"
00:18:19.787                             : :"Ghosts"
00:24:31.119                             : :"Is It Scary"
00:26:59.130                             : :Game Over
00:31:33.714                             : :Revelation
00:33:36.022                             : :End Credits
Reply
Thanks given by: nafroe , Colek , shurricanger , Cesar Jackson , Inq81
#2
Looks good!
Reply
Thanks given by: spoRv
#3
Neat!
Reply
Thanks given by: spoRv
#4
My man!
Reply
Thanks given by:


Possibly Related Threads…
Thread Author Replies Views Last Post
Video [Released] Batman (1989-1997) 4:3 Open Matte DVD Preservation gameacer23 8 1,272 2020-06-26, 04:11 AM
Last Post: gameacer23
  Disney's Beauty and the Beast [spoRv] spoRv 42 27,401 2020-06-25, 03:06 PM
Last Post: workprint-lover-and-wanter
  [Released] Breakdown (1997) Custom BD zoidberg 15 8,848 2019-01-07, 10:15 AM
Last Post: maksnew
  [Released] Брат / Brother (1997) - Cinema Polish Colek 6 4,871 2018-10-13, 12:42 AM
Last Post: OogieBoogie
  [Fan edit] Alien: Covenant - extended edition [spoRv] spoRv 30 19,300 2018-09-14, 06:16 PM
Last Post: heathen3017
  [Released] Alien: Resurrection (1997) [Fundamental Collection™ #004] spoRv 20 13,941 2018-03-24, 11:21 PM
Last Post: spoRv
  [Fan edit] Guardians of the Galaxy Vol. 2 (2017) [spoRv] spoRv 7 5,116 2017-08-23, 08:17 PM
Last Post: Colek
  [Fan edit] The Mummy (2017) [spoRv] spoRv 2 2,904 2017-08-21, 01:23 AM
Last Post: spoRv
  [Fan edit] Wonder Woman (2017) [spoRv] spoRv 17 8,703 2017-07-30, 01:33 AM
Last Post: spoRv
  [archived]Supernova (2000) [spoRv] *BD-25* spoRv 4 4,505 2017-06-25, 07:33 AM
Last Post: spoRv

Forum Jump:


Users browsing this thread: 1 Guest(s)