Thread Rating:
  • 0 Vote(s) - 0 Average
  • 1
  • 2
  • 3
  • 4
  • 5
[Fan edit] Wonder Woman (2017) [spoRv]
#1
Wonder Woman (2017) [spoRv]
[Image: 69f1c6cdd1e8862b8eb55f3f68ce43b2.jpg]
Source: original IPTV KorSub rip
Video: 1080p (1920x800 2.40:1 active image) 23.976fps  AVC 6mbps (40mbps max)
Audio: AC-3 448kbps 5.1 English
Subs: hardcoded Korean, soft English
Chapters: no
Runtime: 2h21m23s
Notes on the source: Korean hardcoded subs, half "12" yellow logo appears sometimes for few seconds
Notes on the release: green blanked removed, contrast improved, two missing frames reinserted, brief shot added (2s), few subtitles removed (maybe 5%)

Screenshots:
[Image: WW_018971.jpg]

[Image: WW_072155.jpg]

[Image: WW_117204.jpg]

[Image: WW_136246.jpg]

Comparison (top untouched, bottom regraded)
[Image: WW_comparison.jpg]

Screenshot comparison: http://screenshotcomparison.com/comparison/216411

Mediainfo
Complete name : Wonder Woman (2017) [spoRv].mkv
Format : Matroska
Format version : Version 4 / Version 2
File size : 6.37 GiB
Duration : 2 h 21 min
Overall bit rate mode : Variable
Overall bit rate : 6 450 kb/s
Encoded date : UTC 2017-07-21 09:55:26
Writing application : mkvmerge v9.6.0 ('Slave To Your Mind') 32bit
Writing library : libebml v1.3.4 + libmatroska v1.4.5

Video
ID : 1
Format : AVC
Format/Info : Advanced Video Codec
Format profile : High@L4.1
Format settings, CABAC : Yes
Format settings, ReFrames : 4 frames
Codec ID : V_MPEG4/ISO/AVC
Duration : 2 h 21 min
Bit rate mode : Variable
Bit rate : 6 000 kb/s
Maximum bit rate : 40.0 Mb/s
Width : 1 920 pixels
Height : 1 080 pixels
Display aspect ratio : 16:9
Frame rate mode : Constant
Frame rate : 23.976 (24000/1001) FPS
Color space : YUV
Chroma subsampling : 4:2:0
Bit depth : 8 bits
Scan type : Progressive
Bits/(Pixel*Frame) : 0.121
Stream size : 5.93 GiB (93%)
Writing library : x264 core 148 r2744 b97ae06
Encoding settings : cabac=1 / ref=4 / deblock=1:-1:-1 / analyse=0x3:0x133 / me=umh / subme=10 / psy=1 / psy_rd=1.00:0.15 / mixed_ref=1 / me_range=24 / chroma_me=1 / trellis=2 / 8x8dct=1 / cqm=0 / deadzone=21,11 / fast_pskip=1 / chroma_qp_offset=-3 / threads=12 / lookahead_threads=1 / sliced_threads=0 / slices=4 / nr=0 / decimate=1 / interlaced=0 / bluray_compat=1 / constrained_intra=0 / bframes=3 / b_pyramid=0 / b_adapt=2 / b_bias=0 / direct=3 / weightb=1 / open_gop=0 / weightp=0 / keyint=24 / keyint_min=1 / scenecut=40 / intra_refresh=0 / rc_lookahead=24 / rc=2pass / mbtree=1 / bitrate=6000 / ratetol=1.0 / qcomp=0.60 / qpmin=0 / qpmax=69 / qpstep=4 / cplxblur=20.0 / qblur=0.5 / vbv_maxrate=40000 / vbv_bufsize=40000 / nal_hrd=vbr / filler=0 / ip_ratio=1.40 / aq=1:1.00
Language : English
Default : Yes
Forced : No
Color range : Limited
Color primaries : BT.709
Transfer characteristics : BT.709
Matrix coefficients : BT.709

Audio
ID : 2
Format : AC-3
Format/Info : Audio Coding 3
Mode extension : CM (complete main)
Format settings, Endianness : Big
Codec ID : A_AC3
Duration : 2 h 21 min
Bit rate mode : Constant
Bit rate : 448 kb/s
Channel(s) : 6 channels
Channel positions : Front: L C R, Side: L R, LFE
Sampling rate : 48.0 kHz
Frame rate : 31.250 FPS (1536 spf)
Bit depth : 16 bits
Compression mode : Lossy
Stream size : 453 MiB (7%)
Language : English
Default : Yes
Forced : No

Text
ID : 3
Format : UTF-8
Codec ID : S_TEXT/UTF8
Codec ID/Info : UTF-8 Plain Text
Duration : 2 h 9 min
Bit rate : 46 b/s
Count of elements : 1548
Stream size : 44.6 KiB (0%)
Language : English
Default : Yes
Forced : No
Reply
Thanks given by: markymark
#2
Is there something special about this source, other than being the first in HD?
Why not wait for a BD, it should turn up in about 3-4 months...
Reply
Thanks given by:
#3
That looks much better.
Reply
Thanks given by:
#4
@nirbateman: nothing special, but I wanted to test my new script to get rid of hardcoded subs using a second source, and the other to remove a certain color blanket, so I tested both with this! Big Grin

@nightstalkerpoet: thanks! Even if without that green blanket and increased brightness, there are still a lot of green left and dark scenes are still dark!
Reply
Thanks given by:
#5
Ohhhh, in that case, great work!
Reply
Thanks given by:
#6
Thanks! Given also the fact I've made it in few hours, I'm pretty proud of it - those few desubbed shots (due to limited lenght of official movie clips) come out very well; color wise, the original is waaay too teal&orange, and the regrade lower it, and the result is still green as it is "supposed" to be - but this is a fan edit, after all, and some liberty is concessed... Wink
Reply
Thanks given by:
#7
Big fan of your work spoRv and what you have technically accomplished on this project is no exception.
What I'm about to say i mean with the upmost respect.

The 'Fan edit' community we are involved in exists in a grey area. Don't you think this moves out of that a little?
This source is a pirate copy of a film, not released in a form where anybody has the opportunity to buy a legit copy.
While it can be argued that it is a HDTV rip and there used as souces all the time, or even a preservation, I personally think this is a different beast.
Like pointed out before it will be available in a matter of time (even then it will be a hot potato for a couple of months!!!).
Releasing this tagged with 'spoRv' may bring you and this place unwanted attention from the wrong people.

I'm not trying to sound negative about your hard work good sir, but its what I think on the matter Smile
Reply
Thanks given by:
#8
Thanks for your compliments, but also for your critic; it's always welcome as long as it's constructive and polite as yours.

Well, I must admit you are right... indeed, maybe I did it (unconsciously?) to bring here some traffic... the movie availability is an open secret - searching for "wonder woman 2017 torrent" would bring more than 3.5m results, so... ethically, if one download this, it is supposed he/she would buy the official release once out, as for all our projects; and, after all, no links are posted...
Reply
Thanks given by:
#9
I WILL be buying the Blu when it arrives as this movie is, hands down, the best of the summer films. Saw it twice with my daughter and I'd go see it again if it were still on the big screen.
Reply
Thanks given by:
#10
Actually, your regrade looks closer to my memory of how the movie actually looked in theaters. Despite both being digital, I do not remember the theatrical being that green. I feel like this is becoming a definite pattern. I swear that the same thing happened with Jurassic World too. Perhaps these (IIRC) Korean hotel PPV versions aren't properly balanced for HDTV color space - I cannot remember if the official BD of Jurassic World retained that green blanket, can anyone check?

It's still playing, so one of us could actually go out and compare an actual screening to this leaked digital version.
Reply
Thanks given by:


Possibly Related Threads…
Thread Author Replies Views Last Post
  Disney's Beauty and the Beast [spoRv] spoRv 42 27,421 2020-06-25, 03:06 PM
Last Post: workprint-lover-and-wanter
  [Fan edit] Alien: Covenant - extended edition [spoRv] spoRv 30 19,312 2018-09-14, 06:16 PM
Last Post: heathen3017
  [Fan edit] Guardians of the Galaxy Vol. 2 (2017) [spoRv] spoRv 7 5,118 2017-08-23, 08:17 PM
Last Post: Colek
  [Fan edit] The Mummy (2017) [spoRv] spoRv 2 2,904 2017-08-21, 01:23 AM
Last Post: spoRv
  [Fan edit] Michael Jackson's Ghosts (1997) [spoRv] spoRv 3 3,408 2017-07-21, 06:31 PM
Last Post: Colek
  [archived]Supernova (2000) [spoRv] *BD-25* spoRv 4 4,508 2017-06-25, 07:33 AM
Last Post: spoRv
  The Arrival [spoRv] spoRv 74 50,403 2017-03-18, 01:07 AM
Last Post: spoRv

Forum Jump:


Users browsing this thread: 1 Guest(s)