Thread Rating:
  • 0 Vote(s) - 0 Average
  • 1
  • 2
  • 3
  • 4
  • 5
Fan edit The Mummy (2017) [spoRv]
#1
The Mummy (2017) [spoRv]
[Image: TM_cover.jpg]
Source: original IPTV KorSub rip (video, English audio) very high quality; LD-TS (Italian audio) lower quality
Video: 1080p (1920x800 2.40:1 active image) 23.976fps AVC 16mbps (40mbps max)
Audio: AC-3 448kbps 5.1 English, AC-3 192kbps 2.0 Italian
Subs: hardcoded Korean, soft English (forced), English (full), Italian (forced)
Chapters: no
Runtime: 1h50m17s
Notes on the source: Korean hardcoded subs, half "12" yellow logo appears sometimes for few seconds on top right corner; Italian audio has lower volume than English and some distortion on high volume parts, while English is perfect and has great quality
Notes on the release: green blanked removed and natural color reinstated; contrast improved; one shot with five duplicated frames fixed; five minutes replaced with top quality source without subs, the rest was deblocked and sharpened, and a 35mm grain plate added, to get improved quality; Italian audio patched with English parts to replace missing ones, plus starting and ending credits; English and Italian forced subs created from scratch

Screenshots (1, 2, 4 top quality, 3 improved quality):
[Image: TM_017104_sporv.png]

[Image: TM_046566_sporv.png]

[Image: TM_094000_sporv.png]

[Image: TM_113068_sporv.png]

Comparison (top untouched, bottom regraded)
[Image: TM_comparison.jpg]

Screenshot comparisons:
http://screenshotcomparison.com/comparison/216696
http://screenshotcomparison.com/comparison/216696

Mediainfo
Complete name : The_Mummy_(2017)_[spoRv].mkv
Format : Matroska
Format version : Version 4 / Version 2
File size : 12.8 GiB
Duration : 1 h 50 min
Overall bit rate mode : Variable
Overall bit rate : 16.6 Mb/s
Encoded date : UTC 2017-07-25 02:29:10
Writing application : mkvmerge v9.6.0 ('Slave To Your Mind') 32bit
Writing library : libebml v1.3.4 + libmatroska v1.4.5

Video
ID : 1
Format : AVC
Format/Info : Advanced Video Codec
Format profile : High@L4.1
Format settings, CABAC : Yes
Format settings, ReFrames : 4 frames
Codec ID : V_MPEG4/ISO/AVC
Duration : 1 h 50 min
Bit rate mode : Variable
Bit rate : 16.0 Mb/s
Maximum bit rate : 40.0 Mb/s
Width : 1 920 pixels
Height : 1 080 pixels
Display aspect ratio : 16:9
Frame rate mode : Constant
Frame rate : 23.976 (24000/1001) FPS
Color space : YUV
Chroma subsampling : 4:2:0
Bit depth : 8 bits
Scan type : Progressive
Bits/(Pixel*Frame) : 0.322
Stream size : 12.3 GiB (96%)
Writing library : x264 core 152 r2851 ba24899
Encoding settings : cabac=1 / ref=4 / deblock=1:-1:-1 / analyse=0x3:0x133 / me=umh / subme=10 / psy=1 / psy_rd=1.00:0.15 / mixed_ref=1 / me_range=24 / chroma_me=1 / trellis=2 / 8x8dct=1 / cqm=0 / deadzone=21,11 / fast_pskip=1 / chroma_qp_offset=-3 / threads=12 / lookahead_threads=1 / sliced_threads=0 / slices=4 / nr=0 / decimate=1 / interlaced=0 / bluray_compat=1 / constrained_intra=0 / bframes=3 / b_pyramid=0 / b_adapt=2 / b_bias=0 / direct=3 / weightb=1 / open_gop=0 / weightp=0 / keyint=24 / keyint_min=1 / scenecut=40 / intra_refresh=0 / rc_lookahead=24 / rc=2pass / mbtree=1 / bitrate=16000 / ratetol=1.0 / qcomp=0.60 / qpmin=0 / qpmax=69 / qpstep=4 / cplxblur=20.0 / qblur=0.5 / vbv_maxrate=40000 / vbv_bufsize=40000 / nal_hrd=vbr / filler=0 / ip_ratio=1.40 / aq=1:1.00
Language : English
Default : Yes
Forced : No
Color range : Limited
Color primaries : BT.709
Transfer characteristics : BT.709
Matrix coefficients : BT.709

Audio #1
ID : 2
Format : AC-3
Format/Info : Audio Coding 3
Mode extension : CM (complete main)
Format settings, Endianness : Big
Codec ID : A_AC3
Duration : 1 h 50 min
Bit rate mode : Constant
Bit rate : 448 kb/s
Channel(s) : 6 channels
Channel positions : Front: L C R, Side: L R, LFE
Sampling rate : 48.0 kHz
Frame rate : 31.250 FPS (1536 spf)
Bit depth : 16 bits
Compression mode : Lossy
Stream size : 353 MiB (3%)
Language : English
Default : Yes
Forced : No

Audio #2
ID : 3
Format : AC-3
Format/Info : Audio Coding 3
Mode extension : CM (complete main)
Format settings, Endianness : Big
Codec ID : A_AC3
Duration : 1 h 50 min
Bit rate mode : Constant
Bit rate : 192 kb/s
Channel(s) : 2 channels
Channel positions : Front: L R
Sampling rate : 48.0 kHz
Frame rate : 31.250 FPS (1536 spf)
Bit depth : 16 bits
Compression mode : Lossy
Stream size : 151 MiB (1%)
Language : Italian
Default : No
Forced : No

Text #1
ID : 4
Format : UTF-8
Codec ID : S_TEXT/UTF8
Codec ID/Info : UTF-8 Plain Text
Duration : 56 min 39 s
Bit rate : 1 b/s
Count of elements : 23
Stream size : 533 Bytes (0%)
Language : English
Default : Yes
Forced : Yes

Text #2
ID : 5
Format : UTF-8
Codec ID : S_TEXT/UTF8
Codec ID/Info : UTF-8 Plain Text
Duration : 1 h 36 min
Bit rate : 41 b/s
Count of elements : 1064
Stream size : 29.3 KiB (0%)
Language : English
Default : No
Forced : No

Text #3
ID : 6
Format : UTF-8
Codec ID : S_TEXT/UTF8
Codec ID/Info : UTF-8 Plain Text
Duration : 1 h 19 min
Bit rate : 1 b/s
Count of elements : 31
Stream size : 876 Bytes (0%)
Language : Italian
Default : No
Forced : Yes
Reply
Thanks given by:
#2
Super 35 (source format) (some scenes)


In the media resource of Russia there is this film, but they put the price high, as soon as the price goes down I will buy and check this film on the Open Matte scene.
Reply
Thanks given by:
#3
It will be great, thanks!!!
Reply
Thanks given by:


Possibly Related Threads…
Thread Author Replies Views Last Post
  Disney's Beauty and the Beast [spoRv] spoRv 41 19,918 2019-06-03, 09:34 PM
Last Post: dwalkerdon
  [Fan edit] Alien: Covenant - extended edition [spoRv] spoRv 30 12,978 2018-09-14, 06:16 PM
Last Post: heathen3017
  [Fan edit] Guardians of the Galaxy Vol. 2 (2017) [spoRv] spoRv 7 3,603 2017-08-23, 08:17 PM
Last Post: Colek
  [Fan edit] Wonder Woman (2017) [spoRv] spoRv 17 5,544 2017-07-30, 01:33 AM
Last Post: spoRv
  [Fan edit] Michael Jackson's Ghosts (1997) [spoRv] spoRv 3 1,992 2017-07-21, 06:31 PM
Last Post: Colek
  [archived]Supernova (2000) [spoRv] *BD-25* spoRv 4 3,804 2017-06-25, 07:33 AM
Last Post: spoRv
  The Arrival [spoRv] spoRv 74 40,857 2017-03-18, 01:07 AM
Last Post: spoRv

Forum Jump:


Users browsing this thread: 1 Guest(s)