Thread Rating:
  • 0 Vote(s) - 0 Average
  • 1
  • 2
  • 3
  • 4
  • 5
Fan edit Raiders of the Lost Ark - Soderbergh version remux
#1
Raiders of the Lost Ark - Soderbergh version remux
[Image: soderbergh-raiders-poster.jpg]

Source: Steven Soderbergh version (based on Blu-ray) - LINK
Video: 720p (1280x544 2.35:1 active image) 23.976fps AVC 2154kbps (40mbps max)
Audio: AC-3 192kbps 2.0, AC-3 384kbps 5.1, AC-3 384kbps 5.1 English
Subs: English (SDH), English (full), French (full), German (full), Italian (full), Spanish (full)
Chapters: yes
Runtime: 1h55m38s
Notes on the release: video untouched; original stereo track, only volume lowered -9dB; added surround track created from stereo, added English surround track from HDTV; added all subtitles, which were corrected and put in sync
Additional notes: audio level is still quite high, so pay attention; this black & white version is NOT simply the color one desaturated!

Screenshots:
[Image: ROTLA_Soderbergh_010976.png]

[Image: ROTLA_Soderbergh_058406.png]

[Image: ROTLA_Soderbergh_115187.jpg]

[Image: ROTLA_Soderbergh_147189.png]

Comparison:
[Image: Raiders_Of_The_Lost_Ark.gif]

http://screenshotcomparison.com/comparison/217454

Mediainfo
Complete name : Raiders_of_the_Lost_Ark_(Soderbergh_version_remux).mkv
Format : Matroska
Format version : Version 4 / Version 2
File size : 2.55 GiB
Duration : 1 h 55 min
Overall bit rate mode : Variable
Overall bit rate : 3 158 kb/s
Encoded date : UTC 2017-07-31 17:50:24
Writing application : mkvmerge v9.6.0 ('Slave To Your Mind') 32bit
Writing library : libebml v1.3.4 + libmatroska v1.4.5

Video
ID : 1
Format : AVC
Format/Info : Advanced Video Codec
Format profile : High@L3.1
Format settings, CABAC : Yes
Format settings, ReFrames : 4 frames
Format settings, GOP : M=4, N=72
Codec ID : V_MPEG4/ISO/AVC
Duration : 1 h 55 min
Bit rate mode : Variable
Bit rate : 2 154 kb/s
Maximum bit rate : 40.0 Mb/s
Width : 1 280 pixels
Height : 720 pixels
Display aspect ratio : 16:9
Frame rate mode : Constant
Frame rate : 23.976 (24000/1001) FPS
Color space : YUV
Chroma subsampling : 4:2:0
Bit depth : 8 bits
Scan type : Progressive
Bits/(Pixel*Frame) : 0.098
Stream size : 1.74 GiB (68%)
Title : Soderbergh version
Language : English
Default : Yes
Forced : Yes
Color range : Limited
Color primaries : BT.709
Transfer characteristics : BT.709
Matrix coefficients : BT.709

Audio #1
ID : 2
Format : AC-3
Format/Info : Audio Coding 3
Mode extension : CM (complete main)
Format settings, Endianness : Big
Codec ID : A_AC3
Duration : 1 h 55 min
Bit rate mode : Constant
Bit rate : 192 kb/s
Channel(s) : 2 channels
Channel positions : Front: L R
Sampling rate : 48.0 kHz
Frame rate : 31.250 FPS (1536 spf)
Bit depth : 16 bits
Compression mode : Lossy
Stream size : 159 MiB (6%)
Title : Soderbergh original
Language : English
Default : Yes
Forced : No

Audio #2
ID : 3
Format : AC-3
Format/Info : Audio Coding 3
Mode extension : CM (complete main)
Format settings, Endianness : Big
Codec ID : A_AC3
Duration : 1 h 55 min
Bit rate mode : Constant
Bit rate : 384 kb/s
Channel(s) : 6 channels
Channel positions : Front: L C R, Side: L R, LFE
Sampling rate : 48.0 kHz
Frame rate : 31.250 FPS (1536 spf)
Bit depth : 16 bits
Compression mode : Lossy
Stream size : 318 MiB (12%)
Title : Soderbergh surroundized
Language : English
Default : No
Forced : No

Audio #3
ID : 4
Format : AC-3
Format/Info : Audio Coding 3
Mode extension : CM (complete main)
Format settings, Endianness : Big
Codec ID : A_AC3
Duration : 1 h 55 min
Bit rate mode : Constant
Bit rate : 384 kb/s
Channel(s) : 6 channels
Channel positions : Front: L C R, Side: L R, LFE
Sampling rate : 48.0 kHz
Frame rate : 31.250 FPS (1536 spf)
Bit depth : 16 bits
Compression mode : Lossy
Stream size : 317 MiB (12%)
Title : English HDTV
Language : English
Default : No
Forced : No

Text #1
ID : 5
Format : PGS
Muxing mode : zlib
Codec ID : S_HDMV/PGS
Codec ID/Info : Picture based subtitle format used on BDs/HD-DVDs
Duration : 1 h 50 min
Bit rate : 10.5 kb/s
Count of elements : 2940
Stream size : 8.23 MiB (0%)
Title : English SDH
Language : English
Default : Yes
Forced : No

Text #2
ID : 6
Format : PGS
Muxing mode : zlib
Codec ID : S_HDMV/PGS
Codec ID/Info : Picture based subtitle format used on BDs/HD-DVDs
Duration : 1 h 48 min
Bit rate : 8 061 b/s
Count of elements : 2118
Stream size : 6.23 MiB (0%)
Title : English
Language : English
Default : No
Forced : No

Text #3
ID : 7
Format : PGS
Muxing mode : zlib
Codec ID : S_HDMV/PGS
Codec ID/Info : Picture based subtitle format used on BDs/HD-DVDs
Duration : 1 h 48 min
Bit rate : 6 314 b/s
Count of elements : 1116
Stream size : 4.90 MiB (0%)
Title : French
Language : French
Default : No
Forced : No

Text #4
ID : 8
Format : PGS
Muxing mode : zlib
Codec ID : S_HDMV/PGS
Codec ID/Info : Picture based subtitle format used on BDs/HD-DVDs
Duration : 1 h 54 min
Bit rate : 6 417 b/s
Count of elements : 1184
Stream size : 5.27 MiB (0%)
Title : German
Language : German
Default : No
Forced : No

Text #5
ID : 9
Format : PGS
Muxing mode : zlib
Codec ID : S_HDMV/PGS
Codec ID/Info : Picture based subtitle format used on BDs/HD-DVDs
Duration : 1 h 50 min
Bit rate : 6 361 b/s
Count of elements : 1126
Stream size : 5.01 MiB (0%)
Title : Italian
Language : Italian
Default : No
Forced : No

Text #6
ID : 10
Format : PGS
Muxing mode : zlib
Codec ID : S_HDMV/PGS
Codec ID/Info : Picture based subtitle format used on BDs/HD-DVDs
Duration : 1 h 50 min
Bit rate : 6 185 b/s
Count of elements : 1140
Stream size : 4.87 MiB (0%)
Title : Spanish
Language : Spanish
Default : No
Forced : No

Menu
00:00:00.000 : enConfusedouth America, 1936
00:03:25.529 : en:The Man with the Hat
00:05:53.635 : en:The Golden Idol
00:10:00.132 : en:Belloq and the Hovitos
00:12:58.351 : en:Archaeology Lesson
00:15:32.631 : enConfusedpecial Assignment
00:20:36.434 : en:Cautious Guy
00:23:07.418 : en:Nepal: The Raven
00:29:00.354 : en:Fight for the Medallion
00:33:51.395 : en:To Cairo
00:36:32.389 : en:The Marketplace
00:40:13.819 : en:Basket Chase
00:42:25.158 : en:Meeting with Belloq
00:46:50.507 : en:Bad Dates
00:49:41.928 : en:Tanis Dig
00:51:09.932 : en:The Map Room
00:55:20.141 : en:Reunited with Marion
00:58:42.218 : en:Uncovering the Well of Souls
01:03:14.740 : en:Into the Well of Souls
01:08:35.143 : en:The Ark Revealed
01:10:34.346 : en:Trapped
01:15:42.153 : en:The Flying Wing
01:22:33.356 : enBig Grinesert Chase
01:25:52.763 : enBig Grinragged Behind
01:30:06.517 : en:The Bantu Wind
01:34:39.665 : en:Confrontation at Sea
01:38:15.171 : en:The Nazis' Secret Island
01:41:15.060 : en:Indy's Bluff
01:44:15.823 : en:The Ark Ceremony
01:47:10.415 : en:The Power of the Ark
01:49:14.997 : en:Washington D.C. and End Credits
Reply
Thanks given by: applesandrice , nafroe
#2
Awesome! Are you uploading this to MS?
Reply
Thanks given by:
#3
To avoid possible problems on my internal organ, you can find it on the blue utopian place! Wink
Reply
Thanks given by:
#4
Can you Pm me a link please my account is locked thanks if it's possible
Reply
Thanks given by:


Possibly Related Threads…
Thread Author Replies Views Last Post
  Star Trek: The Motion Picture - Director's Edition HD Recreation (Version 3 out now) iguanaclerk 57 14,645 2019-09-29, 06:00 AM
Last Post: iguanaclerk
  Regraded Once Upon a Time in America Extended Director's Cut (more colourful version) kk650 60 24,704 2019-09-19, 06:27 PM
Last Post: Stamper
  Psycho (1960): Uncut Version Reconstruction - BD25 The Aluminum Falcon 41 8,788 2019-09-17, 10:32 PM
Last Post: Stamper
  [Released] Raiders of the Lost Ark (1981) - Regraded sanjuro_61 18 1,191 2019-09-07, 05:47 PM
Last Post: Dek Rollins
  The Phantom of the Opera - 1925 Version Reconstruction iguanaclerk 5 1,252 2019-08-24, 03:18 PM
Last Post: iguanaclerk
  [Fan edit] E.T. - The Extra-Terrestrial FanCut 1982 German DL 1080p BluRay AVC Remux Deafmobil 2 438 2019-05-23, 01:50 AM
Last Post: Deafmobil
  The Little Rascals (1994) Extended Version crissrudd4554 6 2,444 2018-08-31, 05:25 PM
Last Post: crissrudd4554
  [Fan edit] Resident Evil (2002) UAR SD (test version) spoRv 1 1,068 2018-02-28, 08:29 AM
Last Post: spoRv
  [Fan edit] The Matrix AAP-AR [EXPERIMENTAL VERSION] (two sources, old grading) spoRv 5 4,770 2018-02-12, 03:55 AM
Last Post: TomArrow

Forum Jump:


Users browsing this thread: 1 Guest(s)