Thread Rating:
  • 0 Vote(s) - 0 Average
  • 1
  • 2
  • 3
  • 4
  • 5
[Released] Oats Volume 1 - Firebase + Rakka + Zygote
#1
Oats Volume 1 - Firebase + Rakka + Zygote
[Image: Oats_Volume_1.png]
Source: Oats Studio original YouTube videos
Video: 1080p (1920x1080 1.78:1 active image) 23.976fps AVC 2mbps (40mbps max)
Audio: AC-3 192kbps 2.0 English
Subs: English (full & SDH), French (full & SDH), German (full & SDH), Italian (full & SDH), Spanish (full & SDH)
Chapters: yes (just for the three shorts)
Runtime: 1h11m11s
Notes on the source: this is a collection of three sci-fi shorts by Oats Studio, made by Neill Blomkamp, and starring Sigourney Weaver and Dakota Fanning
Notes on the release: untouched video (Rakka muxed to 23.976fps); audio converted to 192kbps AC-3 to be BD compliant; added all the subtitles, put them in sync and made a basic fix

Screenshots:
[Image: sKoDWGR.png]

[Image: hioHiKo.png]

[Image: Zygote.png]

Mediainfo
Complete name : Oats Studios - Volume 1.mkv
Format : Matroska
Format version : Version 4 / Version 2
File size : 1.20 GiB
Duration : 1 h 11 min
Overall bit rate mode : Variable
Overall bit rate : 2 416 kb/s
Encoded date : UTC 2017-08-01 00:10:18
Writing application : mkvmerge v9.6.0 ('Slave To Your Mind') 32bit
Writing library : libebml v1.3.4 + libmatroska v1.4.5

Video
ID : 1
Format : AVC
Format/Info : Advanced Video Codec
Format profile : High@L4
Format settings, CABAC : Yes
Format settings, ReFrames : 3 frames
Codec ID : V_MPEG4/ISO/AVC
Duration : 1 h 11 min
Bit rate mode : Variable
Bit rate : 2 129 kb/s
Maximum bit rate : 40.0 Mb/s
Width : 1 920 pixels
Height : 1 080 pixels
Display aspect ratio : 16:9
Frame rate mode : Constant
Frame rate : 23.976 (24000/1001) FPS
Color space : YUV
Chroma subsampling : 4:2:0
Bit depth : 8 bits
Scan type : Progressive
Bits/(Pixel*Frame) : 0.043
Stream size : 1.06 GiB (88%)
Default : Yes
Forced : No
Color range : Limited
Color primaries : BT.709
Transfer characteristics : BT.709
Matrix coefficients : BT.709

Audio
ID : 2
Format : AC-3
Format/Info : Audio Coding 3
Mode extension : CM (complete main)
Format settings, Endianness : Big
Codec ID : A_AC3
Duration : 1 h 11 min
Bit rate mode : Constant
Bit rate : 192 kb/s
Channel(s) : 2 channels
Channel positions : Front: L R
Sampling rate : 44.1 kHz
Frame rate : 28.711 FPS (1536 spf)
Bit depth : 16 bits
Compression mode : Lossy
Stream size : 97.7 MiB (8%)
Language : English
Default : Yes
Forced : No

Text #1
ID : 3
Format : PGS
Muxing mode : zlib
Codec ID : S_HDMV/PGS
Codec ID/Info : Picture based subtitle format used on BDs/HD-DVDs
Duration : 1 h 3 min
Bit rate : 9 594 b/s
Count of elements : 1434
Stream size : 4.37 MiB (0%)
Language : English
Default : Yes
Forced : No

Text #2
ID : 4
Format : PGS
Muxing mode : zlib
Codec ID : S_HDMV/PGS
Codec ID/Info : Picture based subtitle format used on BDs/HD-DVDs
Duration : 1 h 3 min
Bit rate : 10.3 kb/s
Count of elements : 1432
Stream size : 4.71 MiB (0%)
Language : French
Default : No
Forced : No

Text #3
ID : 5
Format : PGS
Muxing mode : zlib
Codec ID : S_HDMV/PGS
Codec ID/Info : Picture based subtitle format used on BDs/HD-DVDs
Duration : 1 h 3 min
Bit rate : 10.4 kb/s
Count of elements : 1436
Stream size : 4.72 MiB (0%)
Language : German
Default : No
Forced : No

Text #4
ID : 6
Format : PGS
Muxing mode : zlib
Codec ID : S_HDMV/PGS
Codec ID/Info : Picture based subtitle format used on BDs/HD-DVDs
Duration : 1 h 3 min
Bit rate : 9 597 b/s
Count of elements : 1426
Stream size : 4.37 MiB (0%)
Language : Italian
Default : No
Forced : No

Text #5
ID : 7
Format : PGS
Muxing mode : zlib
Codec ID : S_HDMV/PGS
Codec ID/Info : Picture based subtitle format used on BDs/HD-DVDs
Duration : 1 h 3 min
Bit rate : 10.2 kb/s
Count of elements : 1432
Stream size : 4.64 MiB (0%)
Language : Spanish
Default : No
Forced : No

Text #6
ID : 8
Format : PGS
Muxing mode : zlib
Codec ID : S_HDMV/PGS
Codec ID/Info : Picture based subtitle format used on BDs/HD-DVDs
Duration : 1 h 8 min
Bit rate : 9 496 b/s
Count of elements : 1596
Stream size : 4.65 MiB (0%)
Language : English
Default : No
Forced : No

Text #7
ID : 9
Format : PGS
Muxing mode : zlib
Codec ID : S_HDMV/PGS
Codec ID/Info : Picture based subtitle format used on BDs/HD-DVDs
Duration : 1 h 8 min
Bit rate : 10.2 kb/s
Count of elements : 1594
Stream size : 5.01 MiB (0%)
Language : French
Default : No
Forced : No

Text #8
ID : 10
Format : PGS
Muxing mode : zlib
Codec ID : S_HDMV/PGS
Codec ID/Info : Picture based subtitle format used on BDs/HD-DVDs
Duration : 1 h 8 min
Bit rate : 10.2 kb/s
Count of elements : 1596
Stream size : 5.00 MiB (0%)
Language : German
Default : No
Forced : No

Text #9
ID : 11
Format : PGS
Muxing mode : zlib
Codec ID : S_HDMV/PGS
Codec ID/Info : Picture based subtitle format used on BDs/HD-DVDs
Duration : 1 h 8 min
Bit rate : 9 489 b/s
Count of elements : 1582
Stream size : 4.65 MiB (0%)
Language : Italian
Default : No
Forced : No

Text #10
ID : 12
Format : PGS
Muxing mode : zlib
Codec ID : S_HDMV/PGS
Codec ID/Info : Picture based subtitle format used on BDs/HD-DVDs
Duration : 1 h 8 min
Bit rate : 10.1 kb/s
Count of elements : 1596
Stream size : 4.94 MiB (0%)
Language : Spanish
Default : No
Forced : No

Menu
00:00:00.000 : en:Firebase
00:26:53.647 : en:Rakka
00:48:46.614 : en:Zygote
Reply
Thanks given by:


Possibly Related Threads…
Thread Author Replies Views Last Post
  Dawn of the Dead Ultimate Edition Volume Three alleycat 12 2,770 2020-04-09, 12:26 PM
Last Post: alleycat

Forum Jump:


Users browsing this thread: 1 Guest(s)