Thread Rating:
  • 0 Vote(s) - 0 Average
  • 1
  • 2
  • 3
  • 4
  • 5
Fan edit Guardians of the Galaxy Vol. 2 (2017) [spoRv]
#1
Guardians of the Galaxy Vol. 2 (2017) [spoRv]
[Image: kaz_guardians.jpg]
Source: WEB-DL
Video: 1080p (1920x804 2.3':1 active image) 23.976fps  AVC 16mbps (40mbps max)
Audio: AC-3 448kbps 5.1 English
Subs: English
Chapters: no
Runtime: 2h21m23s
Notes on the release: magenta blanked removed, contrast improved, 35mm grainplate added
Release format: MKV (Blu-ray compliant)

Screenshots:
[Image: GOTG2_spo_Rv_001000.png]

[Image: GOTG2_spo_Rv_041000.png]

[Image: GOTG2_spo_Rv_062800.png]

[Image: GOTG2_spo_Rv_124700.png]

Screenshot comparison:

[Image: GOTG2_comparison.gif]

Mediainfo
Complete name : Guardians_Of_The_Galaxy_vol_2_[spoRv].mkv
Format : Matroska
Format version : Version 4 / Version 2
File size : 15.6 GiB
Duration : 2 h 16 min
Overall bit rate mode : Variable
Overall bit rate : 16.4 Mb/s
Encoded date : UTC 2017-08-09 17:45:05
Writing application : mkvmerge v9.6.0 ('Slave To Your Mind') 32bit
Writing library : libebml v1.3.4 + libmatroska v1.4.5

Video
ID : 1
Format : AVC
Format/Info : Advanced Video Codec
Format profile : High@L4.1
Format settings, CABAC : Yes
Format settings, ReFrames : 4 frames
Codec ID : V_MPEG4/ISO/AVC
Duration : 2 h 16 min
Bit rate mode : Variable
Bit rate : 16.0 Mb/s
Maximum bit rate : 40.0 Mb/s
Width : 1 920 pixels
Height : 1 080 pixels
Display aspect ratio : 16:9
Frame rate mode : Constant
Frame rate : 23.976 (24000/1001) FPS
Color space : YUV
Chroma subsampling : 4:2:0
Bit depth : 8 bits
Scan type : Progressive
Bits/(Pixel*Frame) : 0.322
Stream size : 15.2 GiB (98%)
Title : Guardians Of The Galaxy Volume 2 [spoRv]
Writing library : x264 core 150 r2833 df79067
Encoding settings : cabac=1 / ref=4 / deblock=1:-1:-1 / analyse=0x3:0x133 / me=umh / subme=10 / psy=1 / psy_rd=1.00:0.15 / mixed_ref=1 / me_range=24 / chroma_me=1 / trellis=2 / 8x8dct=1 / cqm=0 / deadzone=21,11 / fast_pskip=1 / chroma_qp_offset=-3 / threads=12 / lookahead_threads=1 / sliced_threads=0 / slices=4 / nr=0 / decimate=1 / interlaced=0 / bluray_compat=1 / constrained_intra=0 / bframes=3 / b_pyramid=0 / b_adapt=2 / b_bias=0 / direct=3 / weightb=1 / open_gop=0 / weightp=0 / keyint=24 / keyint_min=1 / scenecut=40 / intra_refresh=0 / rc_lookahead=24 / rc=2pass / mbtree=1 / bitrate=16000 / ratetol=1.0 / qcomp=0.60 / qpmin=0 / qpmax=69 / qpstep=4 / cplxblur=20.0 / qblur=0.5 / vbv_maxrate=40000 / vbv_bufsize=40000 / nal_hrd=vbr / filler=0 / ip_ratio=1.40 / aq=1:1.00
Language : English
Default : Yes
Forced : No
Color range : Limited
Color primaries : BT.709
Transfer characteristics : BT.709
Matrix coefficients : BT.709

Audio
ID : 2
Format : AC-3
Format/Info : Audio Coding 3
Mode extension : CM (complete main)
Format settings, Endianness : Big
Codec ID : A_AC3
Duration : 2 h 16 min
Bit rate mode : Constant
Bit rate : 384 kb/s
Channel(s) : 6 channels
Channel positions : Front: L C R, Side: L R, LFE
Sampling rate : 48.0 kHz
Frame rate : 31.250 FPS (1536 spf)
Bit depth : 16 bits
Compression mode : Lossy
Stream size : 374 MiB (2%)
Language : English
Default : Yes
Forced : No

Text
ID : 3
Format : PGS
Muxing mode : zlib
Codec ID : S_HDMV/PGS
Codec ID/Info : Picture based subtitle format used on BDs/HD-DVDs
Duration : 2 h 14 min
Bit rate : 19.8 kb/s
Count of elements : 3156
Stream size : 19.0 MiB (0%)
Language : English
Default : Yes
Forced : No
Fundamental collection thread | Vimeo channel | My personal blog
Reply
Thanks given by: The Aluminum Falcon
#2
Never saw this one theatrically but like the look of your color-correction. Reminds me of the 35mm print of the first Guardians that I watched.
Reply
Thanks given by:
#3
The original grading - apart the magenta blanket - appears too... muddy? foggy?
Fundamental collection thread | Vimeo channel | My personal blog
Reply
Thanks given by:
#4
Yeah, most Marvel films are pretty low-contrast affairs without a decent color grade, the recent Spider-Man movie being no exception. I think punching up the visuals with a healthy amount of contrast can be a good thing.
Reply
Thanks given by:
#5
Looks Great. The contrast boost really gives it added kick!
Reply
Thanks given by:
#6
Just watched, and it looks great. Colors and contrast are spot on. Hope you recreate with a Blu-Ray source!
Reply
Thanks given by:
#7
(2017-08-13, 12:19 AM)The Aluminum Falcon Wrote: Just watched, and it looks great. Colors and contrast are spot on. Hope you recreate with a Blu-Ray source!

Thanks!

I will; just wanted to make my usual multi-language edition... Happy so, must wait some time!
Fundamental collection thread | Vimeo channel | My personal blog
Reply
Thanks given by: The Aluminum Falcon
#8
Guardians.of.the.Galaxy.Vol.2.2017.IMAX.1080p.BluRay.x264-NoGRP

IMAX version is on torrents Wink
Reply
Thanks given by:


Possibly Related Threads...
Thread Author Replies Views Last Post
  [Fan edit] Alien: Covenant - extended edition [spoRv] spoRv 21 2,041 2017-09-08, 01:51 PM
Last Post: TheBlazeJp
  [Fan edit] The Mummy (2017) [spoRv] spoRv 2 410 2017-08-21, 01:23 AM
Last Post: spoRv
  [Fan edit] Wonder Woman (2017) [spoRv] spoRv 17 969 2017-07-30, 01:33 AM
Last Post: spoRv
  [Fan edit] Michael Jackson's Ghost (1997) [spoRv] spoRv 3 351 2017-07-21, 06:31 PM
Last Post: Colek
  [archived]Supernova (2000) [spoRv] *BD-25* spoRv 4 2,146 2017-06-25, 07:33 AM
Last Post: spoRv
  Disney's Beauty and the Beast [spoRv] spoRv 26 8,670 2017-05-15, 02:08 AM
Last Post: spoRv
  The Arrival [spoRv] spoRv 74 22,192 2017-03-18, 01:07 AM
Last Post: spoRv

Forum Jump:


Users browsing this thread: 1 Guest(s)