Thread Rating:
  • 0 Vote(s) - 0 Average
  • 1
  • 2
  • 3
  • 4
  • 5
[Request] Live Wire (1992) 1080p iTunes exclusive
#1
I was hoping that Live Wire starring Pierce Brosnan had received an upgrade from its VHS and early 2000 DVD releases but still no blu ray exists worldwide. I know... it's not Die Hard, right?  Big Grin
However, I did find out that iTunes (US store) has a 1080p MPEG-4 AVC version available
[Image: 227x227bb.jpg]
http://www.blu-ray.com/itunes/Live-Wire-iTunes/12953/
https://itunes.apple.com/us/movie/live-wire/id307084825
Not that I know what to make of an iTunes copy once purchased, I'm not web download-savvy. If anyone knows, it would be nice to bring it out of iTunes limbo.
AKA thxita on OriginalTrilogy
I preserve movies as they first appeared in Italy.
Reply
Thanks given by:
#2
If you can get me iTunes account with this rented on it, I can strip DRM and upload to Blutopia or somewhere.
Reply
Thanks given by:
#3
I imagine I can "buy" it for someone else(?). I have no idea how iTunes works to be honest.
AKA thxita on OriginalTrilogy
I preserve movies as they first appeared in Italy.
Reply
Thanks given by:
#4
Available on UseNet Wink

MediaInfo below. Looks more like a Web-Rip then a WEB-DL
Code:
General
Unique ID                                : 213649996236844775510904374363214958530 (0xA0BB7E16E8E951AAB8D0A73D32FDCFC2)
Complete name                            : /Live.Wire.1992/Live.Wire.1992.1080p.WEB-DL.DD2.0.H.264-Web4HD.mkv
Format                                   : Matroska
Format version                           : Version 4 / Version 2
File size                                : 6.65 GiB
Duration                                 : 1h 25mn
Overall bit rate mode                    : Variable
Overall bit rate                         : 11.2 Mbps
Encoded date                             : UTC 2016-09-15 12:30:44
Writing application                      : mkvmerge v9.4.0 ('Knurl') 64bit
Writing library                          : libebml v1.3.4 + libmatroska v1.4.5

Video
ID                                       : 1
Format                                   : AVC
Format/Info                              : Advanced Video Codec
Format profile                           : High@L4
Format settings                          : CABAC / 4 Ref Frames
Format settings, CABAC                   : Yes
Format settings, ReFrames                : 4 frames
Codec ID                                 : V_MPEG4/ISO/AVC
Duration                                 : 1h 25mn
Bit rate mode                            : Variable
Bit rate                                 : 10.7 Mbps
Maximum bit rate                         : 15.0 Mbps
Width                                    : 1 920 pixels
Height                                   : 1 040 pixels
Display aspect ratio                     : 1.85:1
Frame rate mode                          : Constant
Frame rate                               : 23.976 (24000/1001) fps
Color space                              : YUV
Chroma subsampling                       : 4:2:0
Bit depth                                : 8 bits
Scan type                                : Progressive
Bits/(Pixel*Frame)                       : 0.224
Stream size                              : 6.39 GiB (96%)
Writing library                          : x264 core 148 r2623 d5b2374
Encoding settings                        : cabac=1 / ref=4 / deblock=1:-1:-1 / analyse=0x3:0x133 / me=umh / subme=9 / psy=1 / psy_rd=1.00:0.15 / mixed_ref=1 / me_range=24 / chroma_me=1 / trellis=2 / 8x8dct=1 / cqm=0 / deadzone=21,11 / fast_pskip=1 / chroma_qp_offset=-3 / threads=32 / lookahead_threads=5 / sliced_threads=0 / nr=150 / decimate=1 / interlaced=0 / bluray_compat=0 / constrained_intra=0 / bframes=8 / b_pyramid=2 / b_adapt=2 / b_bias=0 / direct=3 / weightb=1 / open_gop=0 / weightp=2 / keyint=120 / keyint_min=61 / scenecut=0 / intra_refresh=0 / rc_lookahead=120 / rc=crf / mbtree=1 / crf=18.0 / qcomp=0.60 / qpmin=0 / qpmax=69 / qpstep=4 / vbv_maxrate=15000 / vbv_bufsize=31250 / crf_max=0.0 / nal_hrd=vbr / filler=0 / ip_ratio=1.40 / aq=3:1.00
Default                                  : Yes
Forced                                   : No
Color range                              : Limited
Color primaries                          : BT.709
Transfer characteristics                 : BT.709
Matrix coefficients                      : BT.709

Audio
ID                                       : 2
Format                                   : E-AC-3
Format/Info                              : Enhanced Audio Coding 3
Format settings, Endianness              : Big
Codec ID                                 : A_EAC3
Duration                                 : 1h 25mn
Bit rate mode                            : Constant
Bit rate                                 : 224 Kbps
Channel(s)                               : 2 channels
Channel positions                        : Front: L R
Sampling rate                            : 48.0 KHz
Frame rate                               : 187.500 fps (256 SPF)
Compression mode                         : Lossy
Stream size                              : 136 MiB (2%)
Language                                 : English
Service kind                             : Complete Main
Default                                  : Yes
Forced                                   : No

Text
ID                                       : 3
Format                                   : UTF-8
Codec ID                                 : S_TEXT/UTF8
Codec ID/Info                            : UTF-8 Plain Text
Language                                 : English
Default                                  : No
Forced                                   : No
Reply
Thanks given by: Colek
#5
Can you PM me some instruction on how to retreive it? Big Grin
AKA thxita on OriginalTrilogy
I preserve movies as they first appeared in Italy.
Reply
Thanks given by:
#6
Will upload it to Blutopia tomorrow.
Reply
Thanks given by: Evit


Possibly Related Threads…
Thread Author Replies Views Last Post
  [Request] 1992 Walt Disney Classics Sorcerer Mickey Logo Laserdisc rip with PCM Sound dwalkerdon 5 669 2020-07-28, 01:50 PM
Last Post: Falcon
  [Request] Need for Speed 2014 Open Matte Hybrid 1080p Dschafar 0 154 2020-07-18, 10:20 PM
Last Post: Dschafar
  Pearl Harbor 1080p Director's Cut digitalfreaknyc 10 2,432 2020-02-07, 06:01 PM
Last Post: maksnew
  The Corruptor 1999 WEB DL 1080p Open Matte maksnew 0 467 2019-10-31, 06:24 PM
Last Post: maksnew
  [Request] Gremlins UHD to 1080p oh_riginal 3 753 2019-10-22, 04:57 PM
Last Post: bronan
  [Request] They Live! 35mm (edit) JonNada 25 8,958 2019-04-05, 06:26 PM
Last Post: crampedmisfit1990
  Predator Itunes Master vbangle 0 904 2018-08-18, 03:14 AM
Last Post: vbangle
  007 Collection - 4k masters on Itunes? SpaceBlackKnight 10 5,001 2018-01-16, 06:20 PM
Last Post: Stamper

Forum Jump:


Users browsing this thread: 1 Guest(s)