Thread Rating:
  • 0 Vote(s) - 0 Average
  • 1
  • 2
  • 3
  • 4
  • 5
The Abyss
#21
Nope

Still no announcement yet. Last he said was back in 2016 that they had done a wet Gate 4K scan on the original camera negative and did a HDR pass on it.

Considering he’s shooting 2 Avatar films back to back and prepping 2 more in the same time, I doubt we’ll get this anytime soon.
Reply
Thanks given by:
#22
I think this will come by the time Avatar 2 or 3 come (probably in between them).

So yes a stop gap release might be good!
Reply
Thanks given by:
#23
huh, it already had at least 1 scheduled release date last year, was just postponed until early this year, that's what I remember seeing
Reply
Thanks given by:
#24
Bill Hunt @ TheDigitalBits usually likes to announce the imminent release of True Lies and The Abyss on Blu Ray about once a year  Big Grin
Reply
Thanks given by:
#25
It's been announced by Bill Hunt as coming out on Blu-ray about 10 times already over the last 10 years. It's not going to happen yet.
Reply
Thanks given by:
#26
(2018-01-07, 07:10 PM)zoidberg Wrote: Bill Hunt @ TheDigitalBits usually likes to announce the imminent release of True Lies and The Abyss on Blu Ray about once a year  Big Grin

I thought I was the only one that noticed that.
Reply
Thanks given by:
#27
I recorded the Special Edition on TNT HD last night.
It is definitely kind of blurry and unsharp for todays standards, but I don't know the quality of the other copies floating around and therefore can share this cap for everyone interested.

Mediainfo
General
ID                                       : 187 (0xBB)
Complete name                            : TNT_Film_HD_Abyss_DSC_CAP.ts
Format                                   : MPEG-TS
File size                                : 7.47 GiB
Duration                                 : 2h 44mn
Overall bit rate mode                    : Variable
Overall bit rate                         : 6 523 Kbps

Video
ID                                       : 523 (0x20B)
Menu ID                                  : 1000 (0x3E8)
Format                                   : AVC
Format/Info                              : Advanced Video Codec
Format profile                           : High@L4
Format settings, CABAC                   : Yes
Format settings, ReFrames                : 4 frames
Codec ID                                 : 27
Duration                                 : 2h 44mn
Bit rate                                 : 5 425 Kbps
Width                                    : 1 920 pixels
Height                                   : 1 080 pixels
Display aspect ratio                     : 16:9
Frame rate                               : 25.000 fps
Standard                                 : Component
Color space                              : YUV
Chroma subsampling                       : 4:2:0
Bit depth                                : 8 bits
Scan type                                : MBAFF
Scan type, store method                  : Interleaved fields
Scan order                               : Top Field First
Bits/(Pixel*Frame)                       : 0.105
Stream size                              : 6.22 GiB (83%)
Color range                              : Limited
Color primaries                          : BT.709
Transfer characteristics                 : BT.709
Matrix coefficients                      : BT.709

Audio #1
ID                                       : 524 (0x20C)
Menu ID                                  : 1000 (0x3E8)
Format                                   : AC-3
Format/Info                              : Audio Coding 3
Mode extension                           : CM (complete main)
Format settings, Endianness              : Big
Codec ID                                 : 6
Duration                                 : 2h 44mn
Bit rate mode                            : Constant
Bit rate                                 : 384 Kbps
Channel(s)                               : 6 channels
Channel positions                        : Front: L C R, Side: L R, LFE
Sampling rate                            : 48.0 KHz
Frame rate                               : 31.250 fps (1536 spf)
Compression mode                         : Lossy
Delay relative to video                  : 136ms
Stream size                              : 451 MiB (6%)
Language                                 : German

Audio #2
ID                                       : 525 (0x20D)
Menu ID                                  : 1000 (0x3E8)
Format                                   : MPEG Audio
Format version                           : Version 1
Format profile                           : Layer 2
Codec ID                                 : 3
Duration                                 : 2h 44mn
Bit rate mode                            : Constant
Bit rate                                 : 192 Kbps
Channel(s)                               : 2 channels
Sampling rate                            : 48.0 KHz
Compression mode                         : Lossy
Delay relative to video                  : 74ms
Stream size                              : 225 MiB (3%)
Language                                 : German

Audio #3
ID                                       : 526 (0x20E)
Menu ID                                  : 1000 (0x3E8)
Format                                   : MPEG Audio
Format version                           : Version 1
Format profile                           : Layer 2
Codec ID                                 : 3
Duration                                 : 2h 44mn
Bit rate mode                            : Constant
Bit rate                                 : 192 Kbps
Channel(s)                               : 2 channels
Sampling rate                            : 48.0 KHz
Compression mode                         : Lossy
Delay relative to video                  : 72ms
Stream size                              : 225 MiB (3%)
Language                                 : English

[Image: vlcsnap_abss1.png]
[Image: vlcsnap_abss2.png]
[Image: vlcsnap_abss3.png]
[Image: vlcsnap_abss4.png]
[Image: vlcsnap_abss5.png]
[Image: vlcsnap_abss6.png]
[Image: vlcsnap_abss7.png]
[Image: vlcsnap_abss8.png]
Reply
Thanks given by: maksnew , Beber
#28
Oh, I'm interested in The Abyss SE. Does this channel have commercial breaks?
Reply
Thanks given by:
#29
I think there are TV airings coming in France, check out your programs.
Reply
Thanks given by:
#30
@Beber: Check your PMs.

TNT Film is always without commercial breaks and has full intros and credits.
Reply
Thanks given by:


Forum Jump:


Users browsing this thread: 2 Guest(s)