Thread Rating:
  • 0 Vote(s) - 0 Average
  • 1
  • 2
  • 3
  • 4
  • 5
[Archived] Harry Potter and the Chamber of Secrets (open matte) [Fundamental Collection™ #014]
#1
Harry Potter and the Chamber of Secrets [Fundamental Collection]

[Image: HP2_FC_cover.jpg]

Original title: Harry Potter and the Chamber of Secrets
Original runtime: 2h40m56s
Sources: 2x HDTV 1080p
Video processing:The two sources are mixed, replacing missing frames from the first with the ones from the second; TV and rating logos are removed using proper masks; more than an hundred frames with glitches are fixed; deblock; very light sharpening; grain plate
Audio processing: English PCM 5.1 lossless encoded to DTS-HD MA 5.1
Video format: x264 1920x1080 23.976fps open matte 1.78:1
Audio format: DTS-HD MA 5.1 English; DD 5.1 English, French (Parisian), French (Quebec), German, Italian, Spanish (Castilian), Spanish (Latin), Hungarian
Subtitles: English, English SDH, French, German, Italian, Spanish, Hungarian (movie); French, German, Italian (forced)
Chapters: 37
Release notes: High bitrate video 30mbps average, to preserve grain; BD cropped and zoomed is used for ending credits; custom made outer and inner cover + disc label
Release format: BD-50

Screenshots:

[Image: HP2_FC_00.07.37.png]

[Image: HP2_FC_00.35.43.png]

[Image: HP2_FC_01.08.14.png]

[Image: HP2_FC_02.10.00.png]


Checksum + Mediainfo
CHECKSUM

complete project (muxed using tsMuxeR GUI 2.6.12)

   File: Harry_Potter_and_the_Chamber_of_Secrets_[Fundamental_Collection]\BDMV\STREAM\00000.m2ts
   Size: 47.803.613.184 bytes
    MD5: 460c20e21656ca27ed718d709f7fb0d0
  SHA-1: f1e1c1917996d006dc27997a30a5156b655eeb91
SHA3-512: 21ff15aca22ef583b42cb1c9db480700e8ba7b21310e9377bccfc534e19a92a8e7a28c41314a8a606ba0c9cc73c40c3562cb947f3abbccc4533b6c61b526009a



raw h264 stream (demuxed from the m2ts file, using tsMuxeR GUI 2.6.12, all options unchecked)

   File: Harry_Potter_and_the_Chamber_of_Secrets_[Fundamental_Collection]\BDMV\STREAM\00000.track_4113.264
   Size: 36.250.967.949 bytes
    MD5: 6dd1afa3ac2e5982b9eec5d67ad91f73
  SHA-1: 93c33b5453bc8c16724c7d3705863a49bd5ef468
SHA3-512: 84303a7756d6a722bd4894fb230beb782e2f18f787fa578d3f9d52a877a487fa56ed830fc95d2067b1ad3f260a6e9392ff8a70f3dac5d90b6f2cd03ed1793dad


################################################################################################

MEDIAINFO

General
ID                                       : 1 (0x1)
Complete name                            : Harry_Potter_and_the_Chamber_of_Secrets_[Fundamental_Collection]\BDMV\STREAM\00000.m2ts
Format                                   : BDAV
Format/Info                              : Blu-ray Video
File size                                : 44.5 GiB
Duration                                 : 2 h 41 min
Overall bit rate mode                    : Variable
Overall bit rate                         : 39.6 Mb/s
Maximum Overall bit rate                 : 35.5 Mb/s

Video
ID                                       : 4113 (0x1011)
Menu ID                                  : 1 (0x1)
Format                                   : AVC
Format/Info                              : Advanced Video Codec
Format profile                           : High@L4.1
Format settings, CABAC                   : Yes
Format settings, ReFrames                : 4 frames
Format settings, GOP                     : M=4, N=24
Codec ID                                 : 27
Duration                                 : 2 h 41 min
Bit rate mode                            : Variable
Maximum bit rate                         : 40.0 Mb/s
Width                                    : 1 920 pixels
Height                                   : 1 080 pixels
Display aspect ratio                     : 16:9
Frame rate                               : 23.976 (24000/1001) FPS
Color space                              : YUV
Chroma subsampling                       : 4:2:0
Bit depth                                : 8 bits
Scan type                                : Progressive
Color range                              : Limited
Color primaries                          : BT.709
Transfer characteristics                 : BT.709
Matrix coefficients                      : BT.709

Audio #1
ID                                       : 4352 (0x1100)
Menu ID                                  : 1 (0x1)
Format                                   : DTS
Format/Info                              : Digital Theater Systems
Format profile                           : MA / Core
Mode                                     : 16
Format settings, Endianness              : Big
Muxing mode                              : Stream extension
Codec ID                                 : 134
Duration                                 : 2 h 40 min
Bit rate mode                            : Variable / Constant
Bit rate                                 : Unknown / 1 509 kb/s
Channel(s)                               : 6 channels
Channel positions                        : Front: L C R, Side: L R, LFE
Sampling rate                            : 48.0 kHz
Frame rate                               : 93.750 FPS (512 spf)
Bit depth                                : 16 bits
Compression mode                         : Lossless / Lossy
Delay relative to video                  : 21 ms

Audio #2
ID                                       : 4353 (0x1101)
Menu ID                                  : 1 (0x1)
Format                                   : AC-3
Format/Info                              : Audio Coding 3
Mode extension                           : CM (complete main)
Format settings, Endianness              : Big
Codec ID                                 : 129
Duration                                 : 2 h 40 min
Bit rate mode                            : Constant
Bit rate                                 : 640 kb/s
Channel(s)                               : 6 channels
Channel positions                        : Front: L C R, Side: L R, LFE
Sampling rate                            : 48.0 kHz
Frame rate                               : 31.250 FPS (1536 spf)
Bit depth                                : 16 bits
Compression mode                         : Lossy
Stream size                              : 737 MiB (2%)

Audio #3
ID                                       : 4354 (0x1102)
Menu ID                                  : 1 (0x1)
Format                                   : AC-3
Format/Info                              : Audio Coding 3
Mode extension                           : CM (complete main)
Format settings, Endianness              : Big
Codec ID                                 : 129
Duration                                 : 2 h 40 min
Bit rate mode                            : Constant
Bit rate                                 : 640 kb/s
Channel(s)                               : 6 channels
Channel positions                        : Front: L C R, Side: L R, LFE
Sampling rate                            : 48.0 kHz
Frame rate                               : 31.250 FPS (1536 spf)
Bit depth                                : 16 bits
Compression mode                         : Lossy
Stream size                              : 737 MiB (2%)

Audio #4
ID                                       : 4355 (0x1103)
Menu ID                                  : 1 (0x1)
Format                                   : AC-3
Format/Info                              : Audio Coding 3
Mode extension                           : CM (complete main)
Format settings, Endianness              : Big
Codec ID                                 : 129
Duration                                 : 2 h 40 min
Bit rate mode                            : Constant
Bit rate                                 : 640 kb/s
Channel(s)                               : 6 channels
Channel positions                        : Front: L C R, Side: L R, LFE
Sampling rate                            : 48.0 kHz
Frame rate                               : 31.250 FPS (1536 spf)
Bit depth                                : 16 bits
Compression mode                         : Lossy
Stream size                              : 737 MiB (2%)

Audio #5
ID                                       : 4356 (0x1104)
Menu ID                                  : 1 (0x1)
Format                                   : AC-3
Format/Info                              : Audio Coding 3
Mode extension                           : CM (complete main)
Format settings, Endianness              : Big
Codec ID                                 : 129
Duration                                 : 2 h 40 min
Bit rate mode                            : Constant
Bit rate                                 : 640 kb/s
Channel(s)                               : 6 channels
Channel positions                        : Front: L C R, Side: L R, LFE
Sampling rate                            : 48.0 kHz
Frame rate                               : 31.250 FPS (1536 spf)
Bit depth                                : 16 bits
Compression mode                         : Lossy
Stream size                              : 737 MiB (2%)

Audio #6
ID                                       : 4357 (0x1105)
Menu ID                                  : 1 (0x1)
Format                                   : AC-3
Format/Info                              : Audio Coding 3
Mode extension                           : CM (complete main)
Format settings, Endianness              : Big
Codec ID                                 : 129
Duration                                 : 2 h 40 min
Bit rate mode                            : Constant
Bit rate                                 : 640 kb/s
Channel(s)                               : 6 channels
Channel positions                        : Front: L C R, Side: L R, LFE
Sampling rate                            : 48.0 kHz
Frame rate                               : 31.250 FPS (1536 spf)
Bit depth                                : 16 bits
Compression mode                         : Lossy
Stream size                              : 737 MiB (2%)

Audio #7
ID                                       : 4358 (0x1106)
Menu ID                                  : 1 (0x1)
Format                                   : AC-3
Format/Info                              : Audio Coding 3
Mode extension                           : CM (complete main)
Format settings, Endianness              : Big
Codec ID                                 : 129
Duration                                 : 2 h 40 min
Bit rate mode                            : Constant
Bit rate                                 : 640 kb/s
Channel(s)                               : 6 channels
Channel positions                        : Front: L C R, Side: L R, LFE
Sampling rate                            : 48.0 kHz
Frame rate                               : 31.250 FPS (1536 spf)
Bit depth                                : 16 bits
Compression mode                         : Lossy
Stream size                              : 737 MiB (2%)

Audio #8
ID                                       : 4359 (0x1107)
Menu ID                                  : 1 (0x1)
Format                                   : AC-3
Format/Info                              : Audio Coding 3
Mode extension                           : CM (complete main)
Format settings, Endianness              : Big
Codec ID                                 : 129
Duration                                 : 2 h 40 min
Bit rate mode                            : Constant
Bit rate                                 : 640 kb/s
Channel(s)                               : 6 channels
Channel positions                        : Front: L C R, Side: L R, LFE
Sampling rate                            : 48.0 kHz
Frame rate                               : 31.250 FPS (1536 spf)
Bit depth                                : 16 bits
Compression mode                         : Lossy
Stream size                              : 737 MiB (2%)

Audio #9
ID                                       : 4360 (0x1108)
Menu ID                                  : 1 (0x1)
Format                                   : AC-3
Format/Info                              : Audio Coding 3
Mode extension                           : CM (complete main)
Format settings, Endianness              : Big
Codec ID                                 : 129
Duration                                 : 2 h 40 min
Bit rate mode                            : Constant
Bit rate                                 : 448 kb/s
Channel(s)                               : 6 channels
Channel positions                        : Front: L C R, Side: L R, LFE
Sampling rate                            : 48.0 kHz
Frame rate                               : 31.250 FPS (1536 spf)
Bit depth                                : 16 bits
Compression mode                         : Lossy
Stream size                              : 516 MiB (1%)

Text #1
ID                                       : 4608 (0x1200)
Menu ID                                  : 1 (0x1)
Format                                   : PGS
Codec ID                                 : 144

Text #2
ID                                       : 4609 (0x1201)
Menu ID                                  : 1 (0x1)
Format                                   : PGS
Codec ID                                 : 144

Text #3
ID                                       : 4610 (0x1202)
Menu ID                                  : 1 (0x1)
Format                                   : PGS
Codec ID                                 : 144

Text #4
ID                                       : 4611 (0x1203)
Menu ID                                  : 1 (0x1)
Format                                   : PGS
Codec ID                                 : 144

Text #5
ID                                       : 4612 (0x1204)
Menu ID                                  : 1 (0x1)
Format                                   : PGS
Codec ID                                 : 144

Text #6
ID                                       : 4613 (0x1205)
Menu ID                                  : 1 (0x1)
Format                                   : PGS
Codec ID                                 : 144

Text #7
ID                                       : 4614 (0x1206)
Menu ID                                  : 1 (0x1)
Format                                   : PGS
Codec ID                                 : 144

Text #8
ID                                       : 4615 (0x1207)
Menu ID                                  : 1 (0x1)
Format                                   : PGS
Codec ID                                 : 144

Text #9
ID                                       : 4616 (0x1208)
Menu ID                                  : 1 (0x1)
Format                                   : PGS
Codec ID                                 : 144

Text #10
ID                                       : 4617 (0x1209)
Menu ID                                  : 1 (0x1)
Format                                   : PGS
Codec ID                                 : 144
Reply
#2
thank you for sharing, this is my least favorite of the films, i hate dobbie, but it will be an interesting test
Reply
Thanks given by:
#3
On the other hand, this is my second favourite after Prisoner, and find Dobbie hilarious, different horses for different courses as they say. The last half of the fourth is my least favourite.
Reply
Thanks given by:
#4
How to download?
Reply
Thanks given by:
#5
How to download?
Reply
Thanks given by:
#6
They are all on blutopia.
Reply
Thanks given by: HagPuppy89
#7
muchas gracias habia buscado desde hace tiempo estas versiones 16.9
Reply
Thanks given by:
#8
Kisses and hugs to the one who did that....any chance for sharing the download-links?
Reply
Thanks given by:
#9
Is this the extended edition or theatrical release? Could you add this information to the description?
Reply
Thanks given by:
#10
(2019-12-31, 06:35 PM)832174 Wrote: Is this the extended edition or theatrical release? Could you add this information to the description?

If it's not stated in a project description (here or elsewhere), it means it's the theatrical cut; also, as there is also the duration, it's easy to say that is not the EE.
Reply
Thanks given by:


Possibly Related Threads…
Thread Author Replies Views Last Post
  [Archived] Harry Potter and the Prisoner of Azkaban (open matte) [Fundamental Collection™ #015] spoRv 17 9,767 2020-09-18, 12:32 AM
Last Post: spoRv
  [Archived] Harry Potter and The Goblet of Fire (open matte) [Fundamental Collection™ #016] spoRv 3 3,069 2020-09-14, 12:01 AM
Last Post: Serenity91
  [On Hold] Skyfall Open Matte (aka Skyfall IMAX Version) PDB 59 8,690 2020-09-13, 08:20 AM
Last Post: Hitcher
  [Archived] Harry Potter and the Philosopher's Stone (open matte) [Fundamental Collection™ #013] spoRv 56 25,606 2020-08-19, 07:41 PM
Last Post: DYA37
  [Archived] Harry Potter and the Deathly Hallows Part 1(open matte) [Fundamental Collection™#019] spoRv 6 4,475 2020-08-02, 04:47 AM
Last Post: vikkysingh
  [Canceled] The Abyss Open Matte and Regrade PDB 57 8,558 2020-06-25, 01:16 PM
Last Post: jithinmathew330
  [Archived] Harry Potter and the Half-Blood Prince (open matte) [Fundamental Collection™ #018] spoRv 8 5,869 2019-08-23, 10:17 PM
Last Post: spoRv
  [Canceled] Batman (1989) - Open Matte (Upscale Project ) PDB 65 40,169 2019-07-13, 01:08 PM
Last Post: FrankT
  [Archived] Harry Potter and the Deathly Hallows Part 2(open matte) [Fundamental Collection™#020] spoRv 2 3,301 2018-10-06, 12:39 PM
Last Post: VaibhavAnk18
  [Archived] Harry Potter and the Order of the Phoenix (open matte) [Fundamental Collection™ #017] spoRv 6 4,873 2018-08-27, 09:43 PM
Last Post: ablehdTVer

Forum Jump:


Users browsing this thread: 1 Guest(s)