Thread Rating:
  • 3 Vote(s) - 5 Average
  • 1
  • 2
  • 3
  • 4
  • 5
[Archived] Harry Potter and the Prisoner of Azkaban (open matte) [Fundamental Collection™ #015]
#1
Harry Potter and the Prisoner of Azkaban [Fundamental Collection]

[Image: HP3_FC_cover.jpg]

Original title: Harry Potter and the Prisoner of Azkaban
Original runtime: 2h21m42s
Sources: 1x 1080i HDTV & 1x 1080p WEBdl
Video processing:The two sources are mixed, to smooth macroblocks; TV and rating logos are removed using proper masks; fixed single frame with glitches; deblock; very light sharpening; 35mm grain plate
Audio processing: English PCM 5.1 lossless encoded to DTS-HD MA 5.1
Video format: x264 1920x1080 23.976fps open matte 1.78:1
Audio format: DTS-HD MA 5.1 English; DD 5.1 English, French (Parisian), French (Quebec), German, Italian, Spanish (Castilian), Spanish (Latin), Hungarian
Subtitles: English, English SDH, French, German, Italian, Spanish, Hungarian (movie); French, German, Italian, Spanish (forced)
Chapters: 35
Release notes: High bitrate video 25mbps average, to preserve grain; BD cropped and zoomed is used for ending credits; custom made outer and inner cover + disc label
Release format: BD-50

Screenshots:

[Image: HP3_FC_00.05.11.png]

[Image: HP3_FC_00.34.55.png]

[Image: HP3_FC_01.25.19.png]

[Image: HP3_FC_02.06.55.png]


Checksum + Mediainfo
CHECKSUM

complete project (muxed using tsMuxeR GUI 2.6.12)

   File: Harry_Potter_and_the_Prisoner_of_Azkaban_[Fundamental_Collection]\BDMV\STREAM\00000.m2ts
   Size: 35.934.400.512 bytes
    MD5: e47a745fa8a8adb2085f832142e47fa6
  SHA-1: 69ca8154be97c9be0141a8470026cf779063adff
SHA3-512: e20ce3b8e92e97521e400bdb316e0a918b2c87a8002390cde4f2f8442fa5357b8daa3ff45126686273adeb04f6595abaf9d189bdbd01351961753dd882cae3be


raw h264 stream (demuxed from the m2ts file, using tsMuxeR GUI 2.6.12, all options unchecked)

   File: Harry_Potter_and_the_Prisoner_of_Azkaban_[Fundamental_Collection]\BDMV\STREAM\00000.track_4113.264
   Size: 26.599.666.739 bytes
    MD5: dcd86d794b78d5732dcfb715cc5d75be
  SHA-1: 4bb0d7f2d98bf008306f47012b2baa982ed0788c
SHA3-512: fa40cce830aa8fa75b7ff7e77156a85de1c206fcb245007077d2d8728406554be98bb3b94c760399f2812317fe020c6ce8fd5fb77b6f0221c4ff7b1b3be07ed8


################################################################################################

MEDIAINFO

General
ID                                       : 1 (0x1)
Complete name                            : Harry_Potter_and_the_Prisoner_of_Azkaban_[Fundamental_Collection]\BDMV\STREAM\00000.m2ts
Format                                   : BDAV
Format/Info                              : Blu-ray Video
File size                                : 33.5 GiB
Duration                                 : 2 h 21 min
Overall bit rate mode                    : Variable
Overall bit rate                         : 33.8 Mb/s
Maximum Overall bit rate                 : 35.5 Mb/s

Video
ID                                       : 4113 (0x1011)
Menu ID                                  : 1 (0x1)
Format                                   : AVC
Format/Info                              : Advanced Video Codec
Format profile                           : High@L4.1
Format settings, CABAC                   : Yes
Format settings, ReFrames                : 4 frames
Format settings, GOP                     : M=4, N=24
Codec ID                                 : 27
Duration                                 : 2 h 21 min
Bit rate mode                            : Variable
Maximum bit rate                         : 40.0 Mb/s
Width                                    : 1 920 pixels
Height                                   : 1 080 pixels
Display aspect ratio                     : 16:9
Frame rate                               : 23.976 (24000/1001) FPS
Color space                              : YUV
Chroma subsampling                       : 4:2:0
Bit depth                                : 8 bits
Scan type                                : Progressive
Color range                              : Limited
Color primaries                          : BT.709
Transfer characteristics                 : BT.709
Matrix coefficients                      : BT.709

Audio #1
ID                                       : 4352 (0x1100)
Menu ID                                  : 1 (0x1)
Format                                   : DTS
Format/Info                              : Digital Theater Systems
Format profile                           : MA / Core
Mode                                     : 16
Format settings, Endianness              : Big
Muxing mode                              : Stream extension
Codec ID                                 : 134
Duration                                 : 2 h 21 min
Bit rate mode                            : Variable / Constant
Bit rate                                 : Unknown / 1 509 kb/s
Channel(s)                               : 6 channels
Channel positions                        : Front: L C R, Side: L R, LFE
Sampling rate                            : 48.0 kHz
Frame rate                               : 93.750 FPS (512 spf)
Bit depth                                : 16 bits
Compression mode                         : Lossless / Lossy

Audio #2
ID                                       : 4353 (0x1101)
Menu ID                                  : 1 (0x1)
Format                                   : AC-3
Format/Info                              : Audio Coding 3
Mode extension                           : CM (complete main)
Format settings, Endianness              : Big
Codec ID                                 : 129
Duration                                 : 2 h 21 min
Bit rate mode                            : Constant
Bit rate                                 : 640 kb/s
Channel(s)                               : 6 channels
Channel positions                        : Front: L C R, Side: L R, LFE
Sampling rate                            : 48.0 kHz
Frame rate                               : 31.250 FPS (1536 spf)
Bit depth                                : 16 bits
Compression mode                         : Lossy
Stream size                              : 649 MiB (2%)

Audio #3
ID                                       : 4354 (0x1102)
Menu ID                                  : 1 (0x1)
Format                                   : AC-3
Format/Info                              : Audio Coding 3
Mode extension                           : CM (complete main)
Format settings, Endianness              : Big
Codec ID                                 : 129
Duration                                 : 2 h 21 min
Bit rate mode                            : Constant
Bit rate                                 : 640 kb/s
Channel(s)                               : 6 channels
Channel positions                        : Front: L C R, Side: L R, LFE
Sampling rate                            : 48.0 kHz
Frame rate                               : 31.250 FPS (1536 spf)
Bit depth                                : 16 bits
Compression mode                         : Lossy
Stream size                              : 649 MiB (2%)

Audio #4
ID                                       : 4355 (0x1103)
Menu ID                                  : 1 (0x1)
Format                                   : AC-3
Format/Info                              : Audio Coding 3
Mode extension                           : CM (complete main)
Format settings, Endianness              : Big
Codec ID                                 : 129
Duration                                 : 2 h 21 min
Bit rate mode                            : Constant
Bit rate                                 : 640 kb/s
Channel(s)                               : 6 channels
Channel positions                        : Front: L C R, Side: L R, LFE
Sampling rate                            : 48.0 kHz
Frame rate                               : 31.250 FPS (1536 spf)
Bit depth                                : 16 bits
Compression mode                         : Lossy
Stream size                              : 649 MiB (2%)

Audio #5
ID                                       : 4356 (0x1104)
Menu ID                                  : 1 (0x1)
Format                                   : AC-3
Format/Info                              : Audio Coding 3
Mode extension                           : CM (complete main)
Format settings, Endianness              : Big
Codec ID                                 : 129
Duration                                 : 2 h 21 min
Bit rate mode                            : Constant
Bit rate                                 : 448 kb/s
Channel(s)                               : 6 channels
Channel positions                        : Front: L C R, Side: L R, LFE
Sampling rate                            : 48.0 kHz
Frame rate                               : 31.250 FPS (1536 spf)
Bit depth                                : 16 bits
Compression mode                         : Lossy
Stream size                              : 454 MiB (1%)

Audio #6
ID                                       : 4357 (0x1105)
Menu ID                                  : 1 (0x1)
Format                                   : AC-3
Format/Info                              : Audio Coding 3
Mode extension                           : CM (complete main)
Format settings, Endianness              : Big
Codec ID                                 : 129
Duration                                 : 2 h 21 min
Bit rate mode                            : Constant
Bit rate                                 : 448 kb/s
Channel(s)                               : 6 channels
Channel positions                        : Front: L C R, Side: L R, LFE
Sampling rate                            : 48.0 kHz
Frame rate                               : 31.250 FPS (1536 spf)
Bit depth                                : 16 bits
Compression mode                         : Lossy
Stream size                              : 454 MiB (1%)

Audio #7
ID                                       : 4358 (0x1106)
Menu ID                                  : 1 (0x1)
Format                                   : AC-3
Format/Info                              : Audio Coding 3
Mode extension                           : CM (complete main)
Format settings, Endianness              : Big
Codec ID                                 : 129
Duration                                 : 2 h 21 min
Bit rate mode                            : Constant
Bit rate                                 : 448 kb/s
Channel(s)                               : 6 channels
Channel positions                        : Front: L C R, Side: L R, LFE
Sampling rate                            : 48.0 kHz
Frame rate                               : 31.250 FPS (1536 spf)
Bit depth                                : 16 bits
Compression mode                         : Lossy
Stream size                              : 454 MiB (1%)

Audio #8
ID                                       : 4359 (0x1107)
Menu ID                                  : 1 (0x1)
Format                                   : AC-3
Format/Info                              : Audio Coding 3
Mode extension                           : CM (complete main)
Format settings, Endianness              : Big
Codec ID                                 : 129
Duration                                 : 2 h 21 min
Bit rate mode                            : Constant
Bit rate                                 : 640 kb/s
Channel(s)                               : 6 channels
Channel positions                        : Front: L C R, Side: L R, LFE
Sampling rate                            : 48.0 kHz
Frame rate                               : 31.250 FPS (1536 spf)
Bit depth                                : 16 bits
Compression mode                         : Lossy
Stream size                              : 649 MiB (2%)

Audio #9
ID                                       : 4360 (0x1108)
Menu ID                                  : 1 (0x1)
Format                                   : AC-3
Format/Info                              : Audio Coding 3
Mode extension                           : CM (complete main)
Format settings, Endianness              : Big
Codec ID                                 : 129
Duration                                 : 2 h 21 min
Bit rate mode                            : Constant
Bit rate                                 : 448 kb/s
Channel(s)                               : 6 channels
Channel positions                        : Front: L C R, Side: L R, LFE
Sampling rate                            : 48.0 kHz
Frame rate                               : 31.250 FPS (1536 spf)
Bit depth                                : 16 bits
Compression mode                         : Lossy
Stream size                              : 454 MiB (1%)

Text #1
ID                                       : 4608 (0x1200)
Menu ID                                  : 1 (0x1)
Format                                   : PGS
Codec ID                                 : 144

Text #2
ID                                       : 4609 (0x1201)
Menu ID                                  : 1 (0x1)
Format                                   : PGS
Codec ID                                 : 144

Text #3
ID                                       : 4610 (0x1202)
Menu ID                                  : 1 (0x1)
Format                                   : PGS
Codec ID                                 : 144

Text #4
ID                                       : 4611 (0x1203)
Menu ID                                  : 1 (0x1)
Format                                   : PGS
Codec ID                                 : 144

Text #5
ID                                       : 4612 (0x1204)
Menu ID                                  : 1 (0x1)
Format                                   : PGS
Codec ID                                 : 144

Text #6
ID                                       : 4613 (0x1205)
Menu ID                                  : 1 (0x1)
Format                                   : PGS
Codec ID                                 : 144

Text #7
ID                                       : 4614 (0x1206)
Menu ID                                  : 1 (0x1)
Format                                   : PGS
Codec ID                                 : 144

Text #8
ID                                       : 4615 (0x1207)
Menu ID                                  : 1 (0x1)
Format                                   : PGS
Codec ID                                 : 144

Text #9
ID                                       : 4616 (0x1208)
Menu ID                                  : 1 (0x1)
Format                                   : PGS
Codec ID                                 : 144

Text #10
ID                                       : 4617 (0x1209)
Menu ID                                  : 1 (0x1)
Format                                   : PGS
Codec ID                                 : 144

Text #11
ID                                       : 4618 (0x120A)
Menu ID                                  : 1 (0x1)
Format                                   : PGS
Codec ID                                 : 144
Reply
#2
Tell me, is there an Open Matte scene, or is the entire movie cut off from BD?
Reply
Thanks given by:
#3
Haven't made a shot-by-shot comparison but it seems it's just the cropped version - that is very good; I've noted this in only two shots, and I knew what to expect. Note: this "open matte" has a bit more image on top and bottom, at the contrary of HP7.
Reply
Thanks given by:
#4
(2017-12-21, 05:45 PM)spoRv Wrote: Haven't made a shot-by-shot comparison but it seems it's just the cropped version - that is very good; I've noted this in only two shots, and I knew what to expect. Note: this "open matte" has a bit more image on top and bottom, at the contrary of HP7.

Does this mean HP7 is cropped too or are you just comparing this one to the cropped HP7? I was understanding that this was the only one of your releases that wasn't "true" Open Matte, is that correct?
Reply
Thanks given by:
#5
AFAIK, the whole HP3 is cropped (read: cropped on both left and right sides, BUT has also a bit more picture on both top and bottom sides), while HP7 has about 14% which is open matte (read: has more picture on all four sides), while the other is mostly cropped or p&s (read: cropped on both left and right sides, and has also less picture on both top and bottom sides).
Reply
Thanks given by:
#6
Ah I see. And the other movies are all true Open Matte?
Reply
Thanks given by:
#7
(2018-01-01, 07:18 PM)TomArrow Wrote: Ah I see. And the other movies are all true Open Matte?

AFAIK I'm pretty sure that HP1 is all OM; HP2 may be, too; the others are mixed OM/cropped; HP8 is partly full open matte (IMAX, where the BD image can be entirely contained inside a frame), while the rest is "normal" open matte (losing something on the sides, but earning something top/bottom) - can't say the percentage, but if I should guess, I think around half and half. And, unless one would send me a detailed list of start/end frame numbers of IMAX shots, I would NOT release a VAR version! Big Grin
Reply
Thanks given by: TomArrow
#8
Thanks for the info!
Reply
Thanks given by:
#9
I dont understand, how can i download it?
Reply
Thanks given by:
#10
LINKS??? I Loved!
Reply
Thanks given by:


Possibly Related Threads…
Thread Author Replies Views Last Post
  [Archived] Harry Potter and The Goblet of Fire (open matte) [Fundamental Collection™ #016] spoRv 3 3,083 2020-09-14, 12:01 AM
Last Post: Serenity91
  [On Hold] Skyfall Open Matte (aka Skyfall IMAX Version) PDB 59 8,761 2020-09-13, 08:20 AM
Last Post: Hitcher
  [On Hold] Fight Club Open Matte (and OAR Old Master) PDB 67 10,968 2020-09-08, 01:37 AM
Last Post: ejrenaissancenerd69
  [Archived] Harry Potter and the Philosopher's Stone (open matte) [Fundamental Collection™ #013] spoRv 56 25,678 2020-08-19, 07:41 PM
Last Post: DYA37
  [Archived] Harry Potter and the Deathly Hallows Part 1(open matte) [Fundamental Collection™#019] spoRv 6 4,485 2020-08-02, 04:47 AM
Last Post: vikkysingh
  The Blade Runner Regrade Collection (Restored DC and International Cut Regrade v2.0) PDB 208 101,271 2020-07-01, 03:04 PM
Last Post: PDB
  [Canceled] The Abyss Open Matte and Regrade PDB 57 8,634 2020-06-25, 01:16 PM
Last Post: jithinmathew330
  [On Hold] Terminator 2 Theatrical Cut - Open Matte (Upscale Project #6) PDB 44 5,120 2020-05-10, 08:55 AM
Last Post: MrBrown
  [Archived] Harry Potter and the Chamber of Secrets (open matte) [Fundamental Collection™ #014] spoRv 9 4,834 2019-12-31, 09:18 PM
Last Post: spoRv
  [Archived] Harry Potter and the Half-Blood Prince (open matte) [Fundamental Collection™ #018] spoRv 8 5,880 2019-08-23, 10:17 PM
Last Post: spoRv

Forum Jump:


Users browsing this thread: 1 Guest(s)