Thread Rating:
  • 0 Vote(s) - 0 Average
  • 1
  • 2
  • 3
  • 4
  • 5
[Archived] Harry Potter and The Goblet of Fire (open matte) [Fundamental Collection™ #016]
#1
Harry Potter and The Goblet of Fire [Fundamental Collection]

[Image: HP4_FC_cover.jpg]

Original title: Harry Potter and The Goblet of Fire
Original runtime: 2h37m06s
Sources: 2x 1080i HDTV & 1x 1080p WEBdl
Video processing: The two sources are mixed, to smooth macroblocks; TV and rating logos are removed using proper masks; fixed more than fifty frames with glitches; deblock; very light sharpening; 35mm grain plate
Audio processing: English PCM 5.1 lossless encoded to DTS-HD MA 5.1
Video format: x264 1920x1080 23.976fps open matte 1.78:1
Audio format: DTS-HD MA 5.1 English; DD 5.1 English, French (Parisian), French (Quebec), German, Italian, Spanish (Castilian), Spanish (Latin), Hungarian
Subtitles: English, English SDH, French, German, Italian, Spanish, Hungarian (movie); French, German, Italian, Spanish (forced)
Chapters: 29
Release notes: High bitrate video 25mbps average, to preserve grain; BD cropped and zoomed is used for ending credits; custom made outer and inner cover + disc label
Release format: BD-50

Screenshots:

[Image: HP_4_FC_00.06.17.png]

[Image: HP_4_FC_00.49.36.png]

[Image: HP_4_FC_01.17.55.png]

[Image: HP_4_FC_02.21.21.png]


Checksum + Mediainfo
CHECKSUM

complete project (muxed using tsMuxeR GUI 2.6.12)

   File: Harry_Potter_and_The_Goblet_of_Fire_[Fundamental_Collection]\BDMV\STREAM\00000.m2ts
   Size: 39.211.235.328 bytes
    MD5: fd2ebad540cffec62f2472bc9ebe32fe
  SHA-1: d21d86b49a3e6893f4532de9b86586297423706c
SHA3-512: 1d6bcaab14ea349d5b2d844584cdb0200af026eb63b977aa10b46b12d78344af05f5ce99d69e723958dbfa440f8140818080b1a36f74997e90b3c0ecab363371


raw h264 stream (demuxed from the m2ts file, using tsMuxeR GUI 2.6.12, all options unchecked)

   File: Harry_Potter_and_The_Goblet_of_Fire_[Fundamental_Collection]\BDMV\STREAM\00000.m2ts
   Size: 30.259.315.234 bytes
    MD5: 142b3f3c157fc0b6f6a148fbb70610d5
  SHA-1: ce4b53acfd9f2035cb6d44d4d9364d37a13b68d6
SHA3-512: 26d905f447b1514d49cffc553839d6eac5f0e3434aed216f63da2c731f35f0045692a1f7d80c0e72e365f51f5d08f53fbd9b06ec1b7ccaabc7109621708b1ac9


################################################################################################

MEDIAINFO

General
ID                                       : 1 (0x1)
Complete name                            : Harry_Potter_and_The_Goblet_of_Fire_[Fundamental_Collection]\BDMV\STREAM\00000.m2ts
Format                                   : BDAV
Format/Info                              : Blu-ray Video
File size                                : 36.5 GiB
Duration                                 : 2 h 37 min
Overall bit rate mode                    : Variable
Overall bit rate                         : 33.3 Mb/s
Maximum Overall bit rate                 : 35.5 Mb/s

Video
ID                                       : 4113 (0x1011)
Menu ID                                  : 1 (0x1)
Format                                   : AVC
Format/Info                              : Advanced Video Codec
Format profile                           : High@L4.1
Format settings, CABAC                   : Yes
Format settings, ReFrames                : 4 frames
Codec ID                                 : 27
Duration                                 : 2 h 37 min
Bit rate mode                            : Variable
Maximum bit rate                         : 40.0 Mb/s
Width                                    : 1 920 pixels
Height                                   : 1 080 pixels
Display aspect ratio                     : 16:9
Frame rate                               : 23.976 (24000/1001) FPS
Color space                              : YUV
Chroma subsampling                       : 4:2:0
Bit depth                                : 8 bits
Scan type                                : Progressive
Color range                              : Limited
Color primaries                          : BT.709
Transfer characteristics                 : BT.709
Matrix coefficients                      : BT.709

Audio #1
ID                                       : 4352 (0x1100)
Menu ID                                  : 1 (0x1)
Format                                   : DTS
Format/Info                              : Digital Theater Systems
Format profile                           : MA / Core
Mode                                     : 16
Format settings, Endianness              : Big
Muxing mode                              : Stream extension
Codec ID                                 : 134
Duration                                 : 2 h 37 min
Bit rate mode                            : Variable / Constant
Bit rate                                 : Unknown / 1 509 kb/s
Channel(s)                               : 6 channels
Channel positions                        : Front: L C R, Side: L R, LFE
Sampling rate                            : 48.0 kHz
Frame rate                               : 93.750 FPS (512 spf)
Bit depth                                : 16 bits
Compression mode                         : Lossless / Lossy
Delay relative to video                  : 21 ms

Audio #2
ID                                       : 4353 (0x1101)
Menu ID                                  : 1 (0x1)
Format                                   : AC-3
Format/Info                              : Audio Coding 3
Mode extension                           : CM (complete main)
Format settings, Endianness              : Big
Codec ID                                 : 129
Duration                                 : 2 h 37 min
Bit rate mode                            : Constant
Bit rate                                 : 448 kb/s
Channel(s)                               : 6 channels
Channel positions                        : Front: L C R, Side: L R, LFE
Sampling rate                            : 48.0 kHz
Frame rate                               : 31.250 FPS (1536 spf)
Bit depth                                : 16 bits
Compression mode                         : Lossy
Stream size                              : 503 MiB (1%)

Audio #3
ID                                       : 4354 (0x1102)
Menu ID                                  : 1 (0x1)
Format                                   : AC-3
Format/Info                              : Audio Coding 3
Mode extension                           : CM (complete main)
Format settings, Endianness              : Big
Codec ID                                 : 129
Duration                                 : 2 h 37 min
Bit rate mode                            : Constant
Bit rate                                 : 448 kb/s
Channel(s)                               : 6 channels
Channel positions                        : Front: L C R, Side: L R, LFE
Sampling rate                            : 48.0 kHz
Frame rate                               : 31.250 FPS (1536 spf)
Bit depth                                : 16 bits
Compression mode                         : Lossy
Stream size                              : 503 MiB (1%)

Audio #4
ID                                       : 4355 (0x1103)
Menu ID                                  : 1 (0x1)
Format                                   : AC-3
Format/Info                              : Audio Coding 3
Mode extension                           : CM (complete main)
Format settings, Endianness              : Big
Codec ID                                 : 129
Duration                                 : 2 h 37 min
Bit rate mode                            : Constant
Bit rate                                 : 448 kb/s
Channel(s)                               : 6 channels
Channel positions                        : Front: L C R, Side: L R, LFE
Sampling rate                            : 48.0 kHz
Frame rate                               : 31.250 FPS (1536 spf)
Bit depth                                : 16 bits
Compression mode                         : Lossy
Stream size                              : 503 MiB (1%)

Audio #5
ID                                       : 4356 (0x1104)
Menu ID                                  : 1 (0x1)
Format                                   : AC-3
Format/Info                              : Audio Coding 3
Mode extension                           : CM (complete main)
Format settings, Endianness              : Big
Codec ID                                 : 129
Duration                                 : 2 h 37 min
Bit rate mode                            : Constant
Bit rate                                 : 448 kb/s
Channel(s)                               : 6 channels
Channel positions                        : Front: L C R, Side: L R, LFE
Sampling rate                            : 48.0 kHz
Frame rate                               : 31.250 FPS (1536 spf)
Bit depth                                : 16 bits
Compression mode                         : Lossy
Stream size                              : 503 MiB (1%)

Audio #6
ID                                       : 4357 (0x1105)
Menu ID                                  : 1 (0x1)
Format                                   : AC-3
Format/Info                              : Audio Coding 3
Mode extension                           : CM (complete main)
Format settings, Endianness              : Big
Codec ID                                 : 129
Duration                                 : 2 h 37 min
Bit rate mode                            : Constant
Bit rate                                 : 448 kb/s
Channel(s)                               : 6 channels
Channel positions                        : Front: L C R, Side: L R, LFE
Sampling rate                            : 48.0 kHz
Frame rate                               : 31.250 FPS (1536 spf)
Bit depth                                : 16 bits
Compression mode                         : Lossy
Stream size                              : 503 MiB (1%)

Audio #7
ID                                       : 4358 (0x1106)
Menu ID                                  : 1 (0x1)
Format                                   : AC-3
Format/Info                              : Audio Coding 3
Mode extension                           : CM (complete main)
Format settings, Endianness              : Big
Codec ID                                 : 129
Duration                                 : 2 h 37 min
Bit rate mode                            : Constant
Bit rate                                 : 448 kb/s
Channel(s)                               : 6 channels
Channel positions                        : Front: L C R, Side: L R, LFE
Sampling rate                            : 48.0 kHz
Frame rate                               : 31.250 FPS (1536 spf)
Bit depth                                : 16 bits
Compression mode                         : Lossy
Stream size                              : 503 MiB (1%)

Audio #8
ID                                       : 4359 (0x1107)
Menu ID                                  : 1 (0x1)
Format                                   : AC-3
Format/Info                              : Audio Coding 3
Mode extension                           : CM (complete main)
Format settings, Endianness              : Big
Codec ID                                 : 129
Duration                                 : 2 h 37 min
Bit rate mode                            : Constant
Bit rate                                 : 448 kb/s
Channel(s)                               : 6 channels
Channel positions                        : Front: L C R, Side: L R, LFE
Sampling rate                            : 48.0 kHz
Frame rate                               : 31.250 FPS (1536 spf)
Bit depth                                : 16 bits
Compression mode                         : Lossy
Stream size                              : 503 MiB (1%)

Audio #9
ID                                       : 4360 (0x1108)
Menu ID                                  : 1 (0x1)
Format                                   : AC-3
Format/Info                              : Audio Coding 3
Mode extension                           : CM (complete main)
Format settings, Endianness              : Big
Codec ID                                 : 129
Duration                                 : 2 h 37 min
Bit rate mode                            : Constant
Bit rate                                 : 448 kb/s
Channel(s)                               : 6 channels
Channel positions                        : Front: L C R, Side: L R, LFE
Sampling rate                            : 48.0 kHz
Frame rate                               : 31.250 FPS (1536 spf)
Bit depth                                : 16 bits
Compression mode                         : Lossy
Stream size                              : 503 MiB (1%)

Text #1
ID                                       : 4608 (0x1200)
Menu ID                                  : 1 (0x1)
Format                                   : PGS
Codec ID                                 : 144

Text #2
ID                                       : 4609 (0x1201)
Menu ID                                  : 1 (0x1)
Format                                   : PGS
Codec ID                                 : 144

Text #3
ID                                       : 4610 (0x1202)
Menu ID                                  : 1 (0x1)
Format                                   : PGS
Codec ID                                 : 144

Text #4
ID                                       : 4611 (0x1203)
Menu ID                                  : 1 (0x1)
Format                                   : PGS
Codec ID                                 : 144

Text #5
ID                                       : 4612 (0x1204)
Menu ID                                  : 1 (0x1)
Format                                   : PGS
Codec ID                                 : 144

Text #6
ID                                       : 4613 (0x1205)
Menu ID                                  : 1 (0x1)
Format                                   : PGS
Codec ID                                 : 144

Text #7
ID                                       : 4614 (0x1206)
Menu ID                                  : 1 (0x1)
Format                                   : PGS
Codec ID                                 : 144

Text #8
ID                                       : 4615 (0x1207)
Menu ID                                  : 1 (0x1)
Format                                   : PGS
Codec ID                                 : 144

Text #9
ID                                       : 4616 (0x1208)
Menu ID                                  : 1 (0x1)
Format                                   : PGS
Codec ID                                 : 144

Text #10
ID                                       : 4617 (0x1209)
Menu ID                                  : 1 (0x1)
Format                                   : PGS
Codec ID                                 : 144

Text #11
ID                                       : 4618 (0x120A)
Menu ID                                  : 1 (0x1)
Format                                   : PGS
Codec ID                                 : 144
Sadly my projects are lost due to an HDD crash... Sad
Fundamental Collection | Vimeo channel | My blog
Reply
#2
Any kind soul willing to private torrent this to me would be amazing. For some reason blutopia banned me, despite near constant seeding Sad
Reply
Thanks given by:
#3
Hello! is it possible for you to share all these versions of harry potter in open matte?
Reply
Thanks given by:
#4
How can I download ALL Harry Potter movies in Open Matte? There is no link Wink
Reply
Thanks given by:


Possibly Related Threads…
Thread Author Replies Views Last Post
  [On Hold] Skyfall Open Matte (aka Skyfall IMAX Version) PDB 61 9,919 2020-10-19, 05:05 PM
Last Post: pipefan413
  [Archived] Harry Potter and the Prisoner of Azkaban (open matte) [Fundamental Collection™ #015] spoRv 17 10,164 2020-09-18, 12:32 AM
Last Post: spoRv
  [Archived] Harry Potter and the Philosopher's Stone (open matte) [Fundamental Collection™ #013] spoRv 56 26,592 2020-08-19, 07:41 PM
Last Post: DYA37
  [Archived] Harry Potter and the Deathly Hallows Part 1(open matte) [Fundamental Collection™#019] spoRv 6 4,647 2020-08-02, 04:47 AM
Last Post: vikkysingh
  [Canceled] The Abyss Open Matte and Regrade PDB 57 9,614 2020-06-25, 01:16 PM
Last Post: jithinmathew330
  [Archived] Harry Potter and the Chamber of Secrets (open matte) [Fundamental Collection™ #014] spoRv 9 4,988 2019-12-31, 09:18 PM
Last Post: spoRv
  [Archived] Harry Potter and the Half-Blood Prince (open matte) [Fundamental Collection™ #018] spoRv 8 6,065 2019-08-23, 10:17 PM
Last Post: spoRv
  [Canceled] Batman (1989) - Open Matte (Upscale Project ) PDB 65 41,218 2019-07-13, 01:08 PM
Last Post: FrankT
  [Archived] Harry Potter and the Deathly Hallows Part 2(open matte) [Fundamental Collection™#020] spoRv 2 3,423 2018-10-06, 12:39 PM
Last Post: VaibhavAnk18
  [Archived] Harry Potter and the Order of the Phoenix (open matte) [Fundamental Collection™ #017] spoRv 6 5,017 2018-08-27, 09:43 PM
Last Post: ablehdTVer

Forum Jump:


Users browsing this thread: 1 Guest(s)