Thread Rating:
  • 0 Vote(s) - 0 Average
  • 1
  • 2
  • 3
  • 4
  • 5
Archived Harry Potter and the Half-Blood Prince (open matte) [Fundamental Collection™ #018]
#1
Harry Potter and the Half-Blood Prince [Fundamental Collection]

[Image: HP6_FC_cover.jpg]

Original title: Harry Potter and the Half-Blood Prince
Original runtime: 2h33m45s
Sources: 2x 1080i HDTV MPEG-2, 1x 720p HDTV MPEG-2, 1x 576p SDTV MPEG-2
Video processing: Mixed the three HD sources replacing missing frames from one with the ones from another one; TV and rating logos removed using proper masks; blu-ray used in one instance for logo removal; median of the three logo-less versions to get more details and remove blocks, noise, color bleeding
Audio processing: English TrueHD 5.1 lossless encoded to DTS-HD MA 5.1 (why? to be the same as the others!)
Video format: x264 1920x1080 23.976fps open matte 1.78:1
Audio format: DTS-HD MA 5.1 English; DD 5.1 English, French, German, Italian, Spanish (Castilian), Spanish (Latin), Hungarian, English descriptive audio
Subtitles: English, French, German, Italian, Spanish, Hungarian (movie); French, Italian, Spanish (forced)
Chapters: 30
Release notes: High bitrate video 30mbps average, to preserve grain; BD cropped and zoomed is used for ending credits; custom made outer and inner cover + disc label
Release format: BD-50

Screenshots:

[Image: HP6_FC_00.03.42.png]

[Image: HP6_FC_00.45.23.png]

[Image: HP6_FC_01.40.28.png]

[Image: HP6_FC_02.21.12.png]


Checksum + Mediainfo
CHECKSUM

complete project (muxed using tsMuxeR GUI 2.6.12)

   File: Harry_Potter_and_the_Half-Blood_Prince_[Fundamental_Collection]\BDMV\STREAM\00000.m2ts
   Size: 43.779.772.416 bytes
    MD5: c57f7effaabba5fbf581f84ad90a4aa1
  SHA-1: 19d1e0b92ac425b0270a260890b7f4caaa2ff1ab
SHA3-512: e95e1e78861cf22f2cf746dfd2a289c728c31867e67c4a3b956ad1a028551fac6ef4d7bcec23003b9538af885876249eee5abb5923b822301854be96b296bf49


raw h264 stream (demuxed using tsMuxeR GUI 2.6.12, all options unchecked)

   File: Harry_Potter_and_the_Half-Blood_Prince_[Fundamental_Collection]\BDMV\STREAM\00000.track_4113.264
   Size: 34.613.808.135 bytes
    MD5: 13d4d90b865295b16bdb7bb277585fdc
  SHA-1: 6fd33098ed8a364ffc31ad2142b0ce81b3e3f8fd
SHA3-512: 68b1de89ce182f59f749e1ad2971c61d8efe316e41eaa8f18eb17b621656df0d162d8df257d78fd51d959adc707b3e0681ba6bb981b62306f6cdf50bc4ec29aa

################################################################################################

MEDIAINFO

General
ID                                       : 1 (0x1)
Complete name                            : Harry_Potter_and_the_Half-Blood_Prince_[Fundamental_Collection]\BDMV\STREAM\00000.m2ts
Format                                   : BDAV
Format/Info                              : Blu-ray Video
File size                                : 40.8 GiB
Duration                                 : 2 h 33 min
Overall bit rate mode                    : Variable
Overall bit rate                         : 38.0 Mb/s
Maximum Overall bit rate                 : 35.5 Mb/s

Video
ID                                       : 4113 (0x1011)
Menu ID                                  : 1 (0x1)
Format                                   : AVC
Format/Info                              : Advanced Video Codec
Format profile                           : High@L4.1
Format settings, CABAC                   : Yes
Format settings, ReFrames                : 4 frames
Codec ID                                 : 27
Duration                                 : 2 h 33 min
Bit rate mode                            : Variable
Maximum bit rate                         : 40.0 Mb/s
Width                                    : 1 920 pixels
Height                                   : 1 080 pixels
Display aspect ratio                     : 16:9
Frame rate                               : 23.976 (24000/1001) FPS
Color space                              : YUV
Chroma subsampling                       : 4:2:0
Bit depth                                : 8 bits
Scan type                                : Progressive
Color range                              : Limited
Color primaries                          : BT.709
Transfer characteristics                 : BT.709
Matrix coefficients                      : BT.709

Audio #1
ID                                       : 4352 (0x1100)
Menu ID                                  : 1 (0x1)
Format                                   : DTS
Format/Info                              : Digital Theater Systems
Format profile                           : MA / Core
Mode                                     : 16
Format settings, Endianness              : Big
Muxing mode                              : Stream extension
Codec ID                                 : 134
Duration                                 : 2 h 33 min
Bit rate mode                            : Variable / Constant
Bit rate                                 : Unknown / 1 509 kb/s
Channel(s)                               : 6 channels
Channel positions                        : Front: L C R, Side: L R, LFE
Sampling rate                            : 48.0 kHz
Frame rate                               : 93.750 FPS (512 spf)
Bit depth                                : 16 bits
Compression mode                         : Lossless / Lossy

Audio #2
ID                                       : 4353 (0x1101)
Menu ID                                  : 1 (0x1)
Format                                   : AC-3
Format/Info                              : Audio Coding 3
Mode extension                           : CM (complete main)
Format settings, Endianness              : Big
Codec ID                                 : 129
Duration                                 : 2 h 33 min
Bit rate mode                            : Constant
Bit rate                                 : 640 kb/s
Channel(s)                               : 6 channels
Channel positions                        : Front: L C R, Side: L R, LFE
Sampling rate                            : 48.0 kHz
Frame rate                               : 31.250 FPS (1536 spf)
Bit depth                                : 16 bits
Compression mode                         : Lossy
Stream size                              : 703 MiB (2%)

Audio #3
ID                                       : 4354 (0x1102)
Menu ID                                  : 1 (0x1)
Format                                   : AC-3
Format/Info                              : Audio Coding 3
Mode extension                           : CM (complete main)
Format settings, Endianness              : Big
Codec ID                                 : 129
Duration                                 : 2 h 33 min
Bit rate mode                            : Constant
Bit rate                                 : 448 kb/s
Channel(s)                               : 6 channels
Channel positions                        : Front: L C R, Side: L R, LFE
Sampling rate                            : 48.0 kHz
Frame rate                               : 31.250 FPS (1536 spf)
Bit depth                                : 16 bits
Compression mode                         : Lossy
Stream size                              : 492 MiB (1%)

Audio #4
ID                                       : 4355 (0x1103)
Menu ID                                  : 1 (0x1)
Format                                   : AC-3
Format/Info                              : Audio Coding 3
Mode extension                           : CM (complete main)
Format settings, Endianness              : Big
Codec ID                                 : 129
Duration                                 : 2 h 33 min
Bit rate mode                            : Constant
Bit rate                                 : 448 kb/s
Channel(s)                               : 6 channels
Channel positions                        : Front: L C R, Side: L R, LFE
Sampling rate                            : 48.0 kHz
Frame rate                               : 31.250 FPS (1536 spf)
Bit depth                                : 16 bits
Compression mode                         : Lossy
Stream size                              : 492 MiB (1%)

Audio #5
ID                                       : 4356 (0x1104)
Menu ID                                  : 1 (0x1)
Format                                   : AC-3
Format/Info                              : Audio Coding 3
Mode extension                           : CM (complete main)
Format settings, Endianness              : Big
Codec ID                                 : 129
Duration                                 : 2 h 33 min
Bit rate mode                            : Constant
Bit rate                                 : 448 kb/s
Channel(s)                               : 6 channels
Channel positions                        : Front: L C R, Side: L R, LFE
Sampling rate                            : 48.0 kHz
Frame rate                               : 31.250 FPS (1536 spf)
Bit depth                                : 16 bits
Compression mode                         : Lossy
Stream size                              : 492 MiB (1%)

Audio #6
ID                                       : 4357 (0x1105)
Menu ID                                  : 1 (0x1)
Format                                   : AC-3
Format/Info                              : Audio Coding 3
Mode extension                           : CM (complete main)
Format settings, Endianness              : Big
Codec ID                                 : 129
Duration                                 : 2 h 33 min
Bit rate mode                            : Constant
Bit rate                                 : 448 kb/s
Channel(s)                               : 6 channels
Channel positions                        : Front: L C R, Side: L R, LFE
Sampling rate                            : 48.0 kHz
Frame rate                               : 31.250 FPS (1536 spf)
Bit depth                                : 16 bits
Compression mode                         : Lossy
Stream size                              : 493 MiB (1%)

Audio #7
ID                                       : 4358 (0x1106)
Menu ID                                  : 1 (0x1)
Format                                   : AC-3
Format/Info                              : Audio Coding 3
Mode extension                           : CM (complete main)
Format settings, Endianness              : Big
Codec ID                                 : 129
Duration                                 : 2 h 33 min
Bit rate mode                            : Constant
Bit rate                                 : 448 kb/s
Channel(s)                               : 6 channels
Channel positions                        : Front: L C R, Side: L R, LFE
Sampling rate                            : 48.0 kHz
Frame rate                               : 31.250 FPS (1536 spf)
Bit depth                                : 16 bits
Compression mode                         : Lossy
Stream size                              : 492 MiB (1%)

Audio #8
ID                                       : 4359 (0x1107)
Menu ID                                  : 1 (0x1)
Format                                   : AC-3
Format/Info                              : Audio Coding 3
Mode extension                           : CM (complete main)
Format settings, Endianness              : Big
Codec ID                                 : 129
Duration                                 : 2 h 33 min
Bit rate mode                            : Constant
Bit rate                                 : 448 kb/s
Channel(s)                               : 6 channels
Channel positions                        : Front: L C R, Side: L R, LFE
Sampling rate                            : 48.0 kHz
Frame rate                               : 31.250 FPS (1536 spf)
Bit depth                                : 16 bits
Compression mode                         : Lossy
Stream size                              : 492 MiB (1%)

Audio #9
ID                                       : 4360 (0x1108)
Menu ID                                  : 1 (0x1)
Format                                   : AC-3
Format/Info                              : Audio Coding 3
Format profile                           : Dolby Digital
Mode extension                           : CM (complete main)
Format settings, Endianness              : Big
Codec ID                                 : 129
Duration                                 : 2 h 33 min
Bit rate mode                            : Constant
Bit rate                                 : 192 kb/s
Channel(s)                               : 2 channels
Channel positions                        : Front: L R
Sampling rate                            : 48.0 kHz
Frame rate                               : 31.250 FPS (1536 spf)
Bit depth                                : 16 bits
Compression mode                         : Lossy
Stream size                              : 211 MiB (1%)

Text #1
ID                                       : 4608 (0x1200)
Menu ID                                  : 1 (0x1)
Format                                   : PGS
Codec ID                                 : 144

Text #2
ID                                       : 4609 (0x1201)
Menu ID                                  : 1 (0x1)
Format                                   : PGS
Codec ID                                 : 144

Text #3
ID                                       : 4610 (0x1202)
Menu ID                                  : 1 (0x1)
Format                                   : PGS
Codec ID                                 : 144

Text #4
ID                                       : 4611 (0x1203)
Menu ID                                  : 1 (0x1)
Format                                   : PGS
Codec ID                                 : 144

Text #5
ID                                       : 4612 (0x1204)
Menu ID                                  : 1 (0x1)
Format                                   : PGS
Codec ID                                 : 144

Text #6
ID                                       : 4613 (0x1205)
Menu ID                                  : 1 (0x1)
Format                                   : PGS
Codec ID                                 : 144

Text #7
ID                                       : 4614 (0x1206)
Menu ID                                  : 1 (0x1)
Format                                   : PGS
Codec ID                                 : 144

Text #8
ID                                       : 4615 (0x1207)
Menu ID                                  : 1 (0x1)
Format                                   : PGS
Codec ID                                 : 144

Text #9
ID                                       : 4616 (0x1208)
Menu ID                                  : 1 (0x1)
Format                                   : PGS
Codec ID                                 : 144
Reply
#2
NOTE!


Due to technical problems with HP5 encoding, I've decided to seed HP6 instead; don't worry, HP5 will follow tomorrow! Big Grin
Reply
Thanks given by:
#3
I like median!
Reply
Thanks given by:
#4
Nice! How can I download these Harry Potter movies? Smile Thanks a lot!
Reply
Thanks given by:
#5
Thanks!
Reply
Thanks given by:
#6
LINKS??? ♥
Reply
Thanks given by:
#7
Hi, I've always searched for this version without the black bars, there is some method to download the movies, I know they are a community but they could give us the links to download their work, I would appreciate it a lot
Reply
Thanks given by:
#8
sorry i tried to reply to you instead of the thread. can you send me a pm?
Reply
Thanks given by:
#9
Archived = not available anymore, as all my HP projects are basically the same quality of Amazon - apart more languages.
Reply
Thanks given by:


Possibly Related Threads…
Thread Author Replies Views Last Post
  [Archived] Harry Potter and the Prisoner of Azkaban (open matte) [Fundamental Collection™ #015] spoRv 13 6,041 2019-08-06, 11:08 PM
Last Post: spoRv
  [Archived] Harry Potter and the Philosopher's Stone (open matte) [Fundamental Collection™ #013] spoRv 41 13,800 2019-07-29, 01:36 AM
Last Post: spoRv
  [Canceled] Batman (1989) - Open Matte (Upscale Project ) PDB 65 28,692 2019-07-13, 01:08 PM
Last Post: FrankT
  [Archived] Harry Potter and the Chamber of Secrets (open matte) [Fundamental Collection™ #014] spoRv 7 2,854 2019-05-20, 08:23 PM
Last Post: zoldowicz
  [Archived] Harry Potter and the Deathly Hallows Part 1(open matte) [Fundamental Collection™#019] spoRv 4 2,660 2019-05-20, 08:19 PM
Last Post: zoldowicz
  [Archived] Harry Potter and the Deathly Hallows Part 2(open matte) [Fundamental Collection™#020] spoRv 2 2,384 2018-10-06, 12:39 PM
Last Post: VaibhavAnk18
  [Archived] Harry Potter and the Order of the Phoenix (open matte) [Fundamental Collection™ #017] spoRv 6 3,373 2018-08-27, 09:43 PM
Last Post: ablehdTVer
  [Archived] Harry Potter and The Goblet of Fire (open matte) [Fundamental Collection™ #016] spoRv 2 2,199 2018-06-24, 08:19 PM
Last Post: Joaquin Benitez
  [Retired] Blade Runner International Cut Regrade (Criterion Collection Laserdisc) PDB 40 30,429 2017-04-27, 05:38 PM
Last Post: PDB

Forum Jump:


Users browsing this thread: 1 Guest(s)