Thread Rating:
  • 0 Vote(s) - 0 Average
  • 1
  • 2
  • 3
  • 4
  • 5
Archived Harry Potter and the Deathly Hallows Part 1(open matte) [Fundamental Collection™#019]
#1
Harry Potter and the Deathly Hallows Part 1 [Fundamental Collection]

[Image: HP7_FC_cover.jpg]

Original title: Harry Potter and the Deathly Hallows Part 1
Original runtime: 2h26m05s
Sources: 1x 1080i HDTV MPEG-2, 1x 1080p AVC WEBdl, BD
Video processing: Replaced more than seven hundreds shots with carefully chosen, properly set cropped and upscaled BD, for a grandtotal of 83% of the whole movie duration; remaining shots are 14% open matte and 3% pan&scan, which used MPEG-2 and AVC mixed; AVC used to replace missing shots and to remove logo from MPEG-2; deblock; very light sharpening; 35mm grain plate
Audio processing: None
Video format: x264 1920x1080 23.976fps open matte 1.78:1
Audio format: DTS-HD MA 5.1 English; DD 5.1 English, French, German, Italian, Spanish, Hungarian, English descriptive audio
Subtitles: English, French, German, Italian, Spanish, Hungarian (movie); French, German, Italian, Spanish (forced)
Chapters: 31
Release notes: High bitrate video 30mbps average, to preserve grain; final title from AVC; remaining credits from cropped and upscaled BD; custom made outer and inner cover + disc label
Release format: BD-50

Screenshots:

[Image: HP7_FC_00.14.47.png]

[Image: HP7_FC_00.37.21.png]

[Image: HP7_FC_00.51.12.png]

[Image: HP7_FC_01.53.23.png]


Checksum + Mediainfo
CHECKSUM

complete project (muxed using tsMuxeR GUI 2.6.12)

   File: Harry_Potter_and_the_Deathly_Hallows_Part_1_[Fundamental_Collection]\BDMV\STREAM\00000.m2ts
   Size: 44.205.883.392 bytes
    MD5: c45876989b7915d5450c5bd03377b5a6
  SHA-1: 31ecefa12ceff625de0e4cefed473e4fdfea9958
SHA3-512: 6a7814b8fa942dda8c88e8e3a31b42203f9415d8a6fbfc8e75c470e5f9fce460f51c00e19b7de2fce4d1a93fee24da0a04289a4debd79409ee471df93df87b56


raw h264 stream (demuxed from the m2ts file, using tsMuxeR GUI 2.6.12, all options unchecked)

   File: Harry_Potter_and_the_Deathly_Hallows_Part_1_[Fundamental_Collection]\BDMV\STREAM\00000.track_4113.264
   Size: 33.383.798.086 bytes
    MD5: 9e1984ad620ce1c7e4a48e07ed99a2d5
  SHA-1: 0d129422eb0b490d1116e9a043b4b619e4db3fff
SHA3-512: 6368c0abba55abbe8b11c56c71b6b900f830e37da6004618dd289b881cd0068b279f40be351b9caa3776d1b874f2b8eb2ef34985027745d1890d8fac4fb6b56c

################################################################################################

MEDIAINFO

General
ID                                       : 1 (0x1)
Complete name                            : Harry_Potter_and_the_Deathly_Hallows_Part_1_[Fundamental_Collection]\BDMV\STREAM\00000.m2ts
Format                                   : BDAV
Format/Info                              : Blu-ray Video
File size                                : 41.2 GiB
Duration                                 : 2 h 26 min
Overall bit rate mode                    : Variable
Overall bit rate                         : 40.3 Mb/s
Maximum Overall bit rate                 : 35.5 Mb/s

Video
ID                                       : 4113 (0x1011)
Menu ID                                  : 1 (0x1)
Format                                   : AVC
Format/Info                              : Advanced Video Codec
Format profile                           : High@L4.1
Format settings, CABAC                   : Yes
Format settings, ReFrames                : 4 frames
Codec ID                                 : 27
Duration                                 : 2 h 26 min
Bit rate mode                            : Variable
Maximum bit rate                         : 40.0 Mb/s
Width                                    : 1 920 pixels
Height                                   : 1 080 pixels
Display aspect ratio                     : 16:9
Frame rate                               : 23.976 (24000/1001) FPS
Color space                              : YUV
Chroma subsampling                       : 4:2:0
Bit depth                                : 8 bits
Scan type                                : Progressive
Color range                              : Limited
Color primaries                          : BT.709
Transfer characteristics                 : BT.709
Matrix coefficients                      : BT.709

Audio #1
ID                                       : 4352 (0x1100)
Menu ID                                  : 1 (0x1)
Format                                   : DTS
Format/Info                              : Digital Theater Systems
Format profile                           : MA / Core
Mode                                     : 16
Format settings, Endianness              : Big
Muxing mode                              : Stream extension
Codec ID                                 : 134
Duration                                 : 2 h 26 min
Bit rate mode                            : Variable / Constant
Bit rate                                 : Unknown / 1 509 kb/s
Channel(s)                               : 6 channels
Channel positions                        : Front: L C R, Side: L R, LFE
Sampling rate                            : 48.0 kHz
Frame rate                               : 93.750 FPS (512 spf)
Bit depth                                : 24 bits
Compression mode                         : Lossless / Lossy

Audio #2
ID                                       : 4353 (0x1101)
Menu ID                                  : 1 (0x1)
Format                                   : AC-3
Format/Info                              : Audio Coding 3
Mode extension                           : CM (complete main)
Format settings, Endianness              : Big
Codec ID                                 : 129
Duration                                 : 2 h 26 min
Bit rate mode                            : Constant
Bit rate                                 : 640 kb/s
Channel(s)                               : 6 channels
Channel positions                        : Front: L C R, Side: L R, LFE
Sampling rate                            : 48.0 kHz
Frame rate                               : 31.250 FPS (1536 spf)
Bit depth                                : 16 bits
Compression mode                         : Lossy
Stream size                              : 669 MiB (2%)

Audio #3
ID                                       : 4354 (0x1102)
Menu ID                                  : 1 (0x1)
Format                                   : AC-3
Format/Info                              : Audio Coding 3
Mode extension                           : CM (complete main)
Format settings, Endianness              : Big
Codec ID                                 : 129
Duration                                 : 2 h 26 min
Bit rate mode                            : Constant
Bit rate                                 : 640 kb/s
Channel(s)                               : 6 channels
Channel positions                        : Front: L C R, Side: L R, LFE
Sampling rate                            : 48.0 kHz
Frame rate                               : 31.250 FPS (1536 spf)
Bit depth                                : 16 bits
Compression mode                         : Lossy
Stream size                              : 669 MiB (2%)

Audio #4
ID                                       : 4355 (0x1103)
Menu ID                                  : 1 (0x1)
Format                                   : AC-3
Format/Info                              : Audio Coding 3
Mode extension                           : CM (complete main)
Format settings, Endianness              : Big
Codec ID                                 : 129
Duration                                 : 2 h 26 min
Bit rate mode                            : Constant
Bit rate                                 : 640 kb/s
Channel(s)                               : 6 channels
Channel positions                        : Front: L C R, Side: L R, LFE
Sampling rate                            : 48.0 kHz
Frame rate                               : 31.250 FPS (1536 spf)
Bit depth                                : 16 bits
Compression mode                         : Lossy
Stream size                              : 669 MiB (2%)

Audio #5
ID                                       : 4356 (0x1104)
Menu ID                                  : 1 (0x1)
Format                                   : AC-3
Format/Info                              : Audio Coding 3
Mode extension                           : CM (complete main)
Format settings, Endianness              : Big
Codec ID                                 : 129
Duration                                 : 2 h 26 min
Bit rate mode                            : Constant
Bit rate                                 : 640 kb/s
Channel(s)                               : 6 channels
Channel positions                        : Front: L C R, Side: L R, LFE
Sampling rate                            : 48.0 kHz
Frame rate                               : 31.250 FPS (1536 spf)
Bit depth                                : 16 bits
Compression mode                         : Lossy
Stream size                              : 669 MiB (2%)

Audio #6
ID                                       : 4357 (0x1105)
Menu ID                                  : 1 (0x1)
Format                                   : AC-3
Format/Info                              : Audio Coding 3
Mode extension                           : CM (complete main)
Format settings, Endianness              : Big
Codec ID                                 : 129
Duration                                 : 2 h 26 min
Bit rate mode                            : Constant
Bit rate                                 : 640 kb/s
Channel(s)                               : 6 channels
Channel positions                        : Front: L C R, Side: L R, LFE
Sampling rate                            : 48.0 kHz
Frame rate                               : 31.250 FPS (1536 spf)
Bit depth                                : 16 bits
Compression mode                         : Lossy
Stream size                              : 669 MiB (2%)

Audio #7
ID                                       : 4358 (0x1106)
Menu ID                                  : 1 (0x1)
Format                                   : AC-3
Format/Info                              : Audio Coding 3
Format profile                           : Dolby Digital
Mode extension                           : CM (complete main)
Format settings, Endianness              : Big
Codec ID                                 : 129
Duration                                 : 2 h 26 min
Bit rate mode                            : Constant
Bit rate                                 : 192 kb/s
Channel(s)                               : 2 channels
Channel positions                        : Front: L R
Sampling rate                            : 48.0 kHz
Frame rate                               : 31.250 FPS (1536 spf)
Bit depth                                : 16 bits
Compression mode                         : Lossy
Stream size                              : 201 MiB (0%)

Audio #8
ID                                       : 4359 (0x1107)
Menu ID                                  : 1 (0x1)
Format                                   : AC-3
Format/Info                              : Audio Coding 3
Mode extension                           : CM (complete main)
Format settings, Endianness              : Big
Codec ID                                 : 129
Duration                                 : 2 h 26 min
Bit rate mode                            : Constant
Bit rate                                 : 448 kb/s
Channel(s)                               : 6 channels
Channel positions                        : Front: L C R, Side: L R, LFE
Sampling rate                            : 48.0 kHz
Frame rate                               : 31.250 FPS (1536 spf)
Bit depth                                : 16 bits
Compression mode                         : Lossy
Stream size                              : 468 MiB (1%)

Text #1
ID                                       : 4608 (0x1200)
Menu ID                                  : 1 (0x1)
Format                                   : PGS
Codec ID                                 : 144

Text #2
ID                                       : 4609 (0x1201)
Menu ID                                  : 1 (0x1)
Format                                   : PGS
Codec ID                                 : 144
Duration                                 : 2 h 26 min

Text #3
ID                                       : 4610 (0x1202)
Menu ID                                  : 1 (0x1)
Format                                   : PGS
Codec ID                                 : 144

Text #4
ID                                       : 4611 (0x1203)
Menu ID                                  : 1 (0x1)
Format                                   : PGS
Codec ID                                 : 144
Duration                                 : 2 h 26 min

Text #5
ID                                       : 4612 (0x1204)
Menu ID                                  : 1 (0x1)
Format                                   : PGS
Codec ID                                 : 144
Duration                                 : 2 h 26 min
Delay relative to video                  : 83 ms

Text #6
ID                                       : 4613 (0x1205)
Menu ID                                  : 1 (0x1)
Format                                   : PGS
Codec ID                                 : 144
Duration                                 : 2 h 26 min

Text #7
ID                                       : 4614 (0x1206)
Menu ID                                  : 1 (0x1)
Format                                   : PGS
Codec ID                                 : 144
Duration                                 : 2 h 26 min

Text #8
ID                                       : 4615 (0x1207)
Menu ID                                  : 1 (0x1)
Format                                   : PGS
Codec ID                                 : 144
Duration                                 : 2 h 26 min

Text #9
ID                                       : 4616 (0x1208)
Menu ID                                  : 1 (0x1)
Format                                   : PGS
Codec ID                                 : 144
Duration                                 : 2 h 26 min
Delay relative to video                  : 83 ms

Text #10
ID                                       : 4617 (0x1209)
Menu ID                                  : 1 (0x1)
Format                                   : PGS
Codec ID                                 : 144
Reply
Thanks given by: OperatorIV , rovsen313 , Tromick , m5g , Mandrakerj
#2
Hello! How to get DL links? Thank you! )
Reply
Thanks given by:
#3
Seconded. I know you guys like to be all mysterious and cryptic about these things, but give us a clue please.

Thanks.

Edit: I'm guessing you upload to that 'opia' site like the others? If so, pretty annoying as I barely have a chance of getting in and neither do many others.
Reply
Thanks given by:
#4
(2019-01-04, 12:28 AM)elwhy Wrote: Seconded. I know you guys like to be all mysterious and cryptic about these things, but give us a clue please.

Thanks.

Edit: I'm guessing you upload to that 'opia' site like the others? If so, pretty annoying as I  barely have a chance of getting in and neither do many others.

My apologies was very easy to get invited. Thought it'd be harder somehow.
Reply
Thanks given by:
#5
That's an amazing work you did there...May I ask where I can download them? Thanks alot for making this possible
Reply
Thanks given by:


Possibly Related Threads…
Thread Author Replies Views Last Post
  [Archived] Harry Potter and the Half-Blood Prince (open matte) [Fundamental Collection™ #018] spoRv 8 3,260 2019-08-23, 10:17 PM
Last Post: spoRv
  [Archived] Harry Potter and the Prisoner of Azkaban (open matte) [Fundamental Collection™ #015] spoRv 13 5,849 2019-08-06, 11:08 PM
Last Post: spoRv
  [Archived] Harry Potter and the Philosopher's Stone (open matte) [Fundamental Collection™ #013] spoRv 41 13,388 2019-07-29, 01:36 AM
Last Post: spoRv
  [Canceled] Batman (1989) - Open Matte (Upscale Project ) PDB 65 27,950 2019-07-13, 01:08 PM
Last Post: FrankT
  [Archived] Harry Potter and the Chamber of Secrets (open matte) [Fundamental Collection™ #014] spoRv 7 2,762 2019-05-20, 08:23 PM
Last Post: zoldowicz
  [Archived] Harry Potter and the Deathly Hallows Part 2(open matte) [Fundamental Collection™#020] spoRv 2 2,318 2018-10-06, 12:39 PM
Last Post: VaibhavAnk18
  [Archived] Harry Potter and the Order of the Phoenix (open matte) [Fundamental Collection™ #017] spoRv 6 3,285 2018-08-27, 09:43 PM
Last Post: ablehdTVer
  [Archived] Harry Potter and The Goblet of Fire (open matte) [Fundamental Collection™ #016] spoRv 2 2,149 2018-06-24, 08:19 PM
Last Post: Joaquin Benitez
  [Retired] Blade Runner International Cut Regrade (Criterion Collection Laserdisc) PDB 40 30,107 2017-04-27, 05:38 PM
Last Post: PDB

Forum Jump:


Users browsing this thread: 1 Guest(s)