Thread Rating:
  • 1 Vote(s) - 5 Average
  • 1
  • 2
  • 3
  • 4
  • 5
[Archived] Harry Potter and the Deathly Hallows Part 2(open matte) [Fundamental Collection™#020]
#1
Harry Potter and the Deathly Hallows Part 2 [Fundamental Collection]

[Image: HP8_FC_cover.jpg]

Original title: Harry Potter and the Deathly Hallows Part 2
Original runtime: 2h10m27s
Sources: 1x 1080i HDTV MPEG-2, 1x 1080p AVC WEBdl
Video processing: Sources mixed to get more details and less noise (around 93%); AVC used to replace missing shots from MPEG-2 (around 7%); AVC used to remove logo from MPEG-2; deblock; very light sharpening; 35mm grain plate
Audio processing: None
Video format: x264 1920x1080 23.976fps open matte 1.78:1
Audio format: DTS-HD MA 5.1 English; DD 5.1 English, French, German, Italian, Spanish, Hungarian, English descriptive audio
Subtitles: English, French, German, Italian, Spanish, Hungarian (movie); French, German, Italian, Spanish (forced)
Chapters: 28
Release notes: High bitrate video 30mbps average, to preserve grain; final credits from AVC; custom made outer and inner cover + disc label
Release format: BD-50

Screenshots:

[Image: HP8_FC_00.02.07.png]

[Image: HP8_FC_00.22.04.png]

[Image: HP8_FC_01.33.52.png]

[Image: HP8_FC_01.48.16.png]


Checksum + Mediainfo
CHECKSUM

complete project (muxed using tsMuxeR GUI 2.6.12)

   File: Harry_Potter_and_the_Deathly_Hallows_Part_2_[Fundamental_Collection]\BDMV\STREAM\00000.m2ts
   Size: 40.621.314.048 bytes
    MD5: 7791f7c2071ccfb0f8825f2be583ee59
  SHA-1: 28974af3a1ad1c5cd53bd446ddc49adb444fbb25
SHA3-512: 53396d01c3a5cacbd9d21f3ad450a1bb8422122a608e404f21c25dfa23593a92dc31b0bdd19290be4db68dfa980addfa5b6f831d1c36940ae882ec67373b0acb


raw h264 stream (demuxed from the m2ts file, using tsMuxeR GUI 2.6.12, all options unchecked)

   File: Harry_Potter_and_the_Deathly_Hallows_Part_2_[Fundamental_Collection]\BDMV\STREAM\00000.track_4113.264
   Size: 30.697.146.719 bytes
    MD5: 030829f63037097501c87563d00570ea
  SHA-1: bba20cd03d2b0d03bbe7cbd32e9d4bf0b8211769
SHA3-512: 6ac6d4445557934bb4a81ae604ba10e7656037ac09c3b85c1860481de2de11956d4377d8ca07171df50ef4a90a1ff8f371dcf8c691c0b3338f01cec2c6538b1b


################################################################################################

MEDIAINFO

General
ID                                       : 1 (0x1)
Complete name                            : Harry_Potter_and_the_Deathly_Hallows_Part_2_[Fundamental_Collection]\BDMV\STREAM\00000.m2ts
Format                                   : BDAV
Format/Info                              : Blu-ray Video
File size                                : 37.8 GiB
Duration                                 : 2 h 10 min
Overall bit rate mode                    : Variable
Overall bit rate                         : 41.5 Mb/s
Maximum Overall bit rate                 : 35.5 Mb/s

Video
ID                                       : 4113 (0x1011)
Menu ID                                  : 1 (0x1)
Format                                   : AVC
Format/Info                              : Advanced Video Codec
Format profile                           : High@L4.1
Format settings, CABAC                   : Yes
Format settings, ReFrames                : 4 frames
Format settings, GOP                     : M=4, N=24
Codec ID                                 : 27
Duration                                 : 2 h 10 min
Bit rate mode                            : Variable
Maximum bit rate                         : 40.0 Mb/s
Width                                    : 1 920 pixels
Height                                   : 1 080 pixels
Display aspect ratio                     : 16:9
Frame rate                               : 23.976 (24000/1001) FPS
Color space                              : YUV
Chroma subsampling                       : 4:2:0
Bit depth                                : 8 bits
Scan type                                : Progressive
Color range                              : Limited
Color primaries                          : BT.709
Transfer characteristics                 : BT.709
Matrix coefficients                      : BT.709

Audio #1
ID                                       : 4352 (0x1100)
Menu ID                                  : 1 (0x1)
Format                                   : DTS
Format/Info                              : Digital Theater Systems
Format profile                           : MA / Core
Mode                                     : 16
Format settings, Endianness              : Big
Muxing mode                              : Stream extension
Codec ID                                 : 134
Duration                                 : 2 h 10 min
Bit rate mode                            : Variable / Constant
Bit rate                                 : Unknown / 1 509 kb/s
Channel(s)                               : 6 channels
Channel positions                        : Front: L C R, Side: L R, LFE
Sampling rate                            : 48.0 kHz
Frame rate                               : 93.750 FPS (512 spf)
Bit depth                                : 24 bits
Compression mode                         : Lossless / Lossy

Audio #2
ID                                       : 4353 (0x1101)
Menu ID                                  : 1 (0x1)
Format                                   : AC-3
Format/Info                              : Audio Coding 3
Mode extension                           : CM (complete main)
Format settings, Endianness              : Big
Codec ID                                 : 129
Duration                                 : 2 h 10 min
Bit rate mode                            : Constant
Bit rate                                 : 640 kb/s
Channel(s)                               : 6 channels
Channel positions                        : Front: L C R, Side: L R, LFE
Sampling rate                            : 48.0 kHz
Frame rate                               : 31.250 FPS (1536 spf)
Bit depth                                : 16 bits
Compression mode                         : Lossy
Stream size                              : 597 MiB (2%)

Audio #3
ID                                       : 4354 (0x1102)
Menu ID                                  : 1 (0x1)
Format                                   : AC-3
Format/Info                              : Audio Coding 3
Mode extension                           : CM (complete main)
Format settings, Endianness              : Big
Codec ID                                 : 129
Duration                                 : 2 h 10 min
Bit rate mode                            : Constant
Bit rate                                 : 640 kb/s
Channel(s)                               : 6 channels
Channel positions                        : Front: L C R, Side: L R, LFE
Sampling rate                            : 48.0 kHz
Frame rate                               : 31.250 FPS (1536 spf)
Bit depth                                : 16 bits
Compression mode                         : Lossy
Stream size                              : 597 MiB (2%)

Audio #4
ID                                       : 4355 (0x1103)
Menu ID                                  : 1 (0x1)
Format                                   : AC-3
Format/Info                              : Audio Coding 3
Mode extension                           : CM (complete main)
Format settings, Endianness              : Big
Codec ID                                 : 129
Duration                                 : 2 h 10 min
Bit rate mode                            : Constant
Bit rate                                 : 640 kb/s
Channel(s)                               : 6 channels
Channel positions                        : Front: L C R, Side: L R, LFE
Sampling rate                            : 48.0 kHz
Frame rate                               : 31.250 FPS (1536 spf)
Bit depth                                : 16 bits
Compression mode                         : Lossy
Stream size                              : 597 MiB (2%)

Audio #5
ID                                       : 4356 (0x1104)
Menu ID                                  : 1 (0x1)
Format                                   : AC-3
Format/Info                              : Audio Coding 3
Mode extension                           : CM (complete main)
Format settings, Endianness              : Big
Codec ID                                 : 129
Duration                                 : 2 h 10 min
Bit rate mode                            : Constant
Bit rate                                 : 640 kb/s
Channel(s)                               : 6 channels
Channel positions                        : Front: L C R, Side: L R, LFE
Sampling rate                            : 48.0 kHz
Frame rate                               : 31.250 FPS (1536 spf)
Bit depth                                : 16 bits
Compression mode                         : Lossy
Stream size                              : 597 MiB (2%)

Audio #6
ID                                       : 4357 (0x1105)
Menu ID                                  : 1 (0x1)
Format                                   : AC-3
Format/Info                              : Audio Coding 3
Mode extension                           : CM (complete main)
Format settings, Endianness              : Big
Codec ID                                 : 129
Duration                                 : 2 h 10 min
Bit rate mode                            : Constant
Bit rate                                 : 640 kb/s
Channel(s)                               : 6 channels
Channel positions                        : Front: L C R, Side: L R, LFE
Sampling rate                            : 48.0 kHz
Frame rate                               : 31.250 FPS (1536 spf)
Bit depth                                : 16 bits
Compression mode                         : Lossy
Stream size                              : 597 MiB (2%)

Audio #7
ID                                       : 4358 (0x1106)
Menu ID                                  : 1 (0x1)
Format                                   : AC-3
Format/Info                              : Audio Coding 3
Mode extension                           : CM (complete main)
Format settings, Endianness              : Big
Codec ID                                 : 129
Duration                                 : 2 h 10 min
Bit rate mode                            : Constant
Bit rate                                 : 448 kb/s
Channel(s)                               : 6 channels
Channel positions                        : Front: L C R, Side: L R, LFE
Sampling rate                            : 48.0 kHz
Frame rate                               : 31.250 FPS (1536 spf)
Bit depth                                : 16 bits
Compression mode                         : Lossy
Stream size                              : 418 MiB (1%)

Audio #8
ID                                       : 4359 (0x1107)
Menu ID                                  : 1 (0x1)
Format                                   : AC-3
Format/Info                              : Audio Coding 3
Format profile                           : Dolby Digital
Mode extension                           : CM (complete main)
Format settings, Endianness              : Big
Codec ID                                 : 129
Duration                                 : 2 h 10 min
Bit rate mode                            : Constant
Bit rate                                 : 192 kb/s
Channel(s)                               : 2 channels
Channel positions                        : Front: L R
Sampling rate                            : 48.0 kHz
Frame rate                               : 31.250 FPS (1536 spf)
Bit depth                                : 16 bits
Compression mode                         : Lossy
Stream size                              : 179 MiB (0%)

Text #1
ID                                       : 4608 (0x1200)
Menu ID                                  : 1 (0x1)
Format                                   : PGS
Codec ID                                 : 144

Text #2
ID                                       : 4609 (0x1201)
Menu ID                                  : 1 (0x1)
Format                                   : PGS
Codec ID                                 : 144

Text #3
ID                                       : 4610 (0x1202)
Menu ID                                  : 1 (0x1)
Format                                   : PGS
Codec ID                                 : 144

Text #4
ID                                       : 4611 (0x1203)
Menu ID                                  : 1 (0x1)
Format                                   : PGS
Codec ID                                 : 144

Text #5
ID                                       : 4612 (0x1204)
Menu ID                                  : 1 (0x1)
Format                                   : PGS
Codec ID                                 : 144

Text #6
ID                                       : 4613 (0x1205)
Menu ID                                  : 1 (0x1)
Format                                   : PGS
Codec ID                                 : 144

Text #7
ID                                       : 4614 (0x1206)
Menu ID                                  : 1 (0x1)
Format                                   : PGS
Codec ID                                 : 144

Text #8
ID                                       : 4615 (0x1207)
Menu ID                                  : 1 (0x1)
Format                                   : PGS
Codec ID                                 : 144

Text #9
ID                                       : 4616 (0x1208)
Menu ID                                  : 1 (0x1)
Format                                   : PGS
Codec ID                                 : 144

Text #10
ID                                       : 4617 (0x1209)
Menu ID                                  : 1 (0x1)
Format                                   : PGS
Codec ID                                 : 144
Reply
Thanks given by: TomArrow , OperatorIV , Sabi96 , born113 , Tromick , velots
#2
Good work
https://forum.fanres.com/thread-1924-pos...l#pid42230
Reply
Thanks given by:
#3
How to download it?
Reply
Thanks given by: pibeslandia


Possibly Related Threads…
Thread Author Replies Views Last Post
  [Archived] Harry Potter and the Prisoner of Azkaban (open matte) [Fundamental Collection™ #015] spoRv 17 9,724 Yesterday, 12:32 AM
Last Post: spoRv
  [Archived] Harry Potter and The Goblet of Fire (open matte) [Fundamental Collection™ #016] spoRv 3 3,061 2020-09-14, 12:01 AM
Last Post: Serenity91
  [On Hold] Skyfall Open Matte (aka Skyfall IMAX Version) PDB 59 8,602 2020-09-13, 08:20 AM
Last Post: Hitcher
  [Archived] Harry Potter and the Philosopher's Stone (open matte) [Fundamental Collection™ #013] spoRv 56 25,543 2020-08-19, 07:41 PM
Last Post: DYA37
  [Archived] Harry Potter and the Deathly Hallows Part 1(open matte) [Fundamental Collection™#019] spoRv 6 4,464 2020-08-02, 04:47 AM
Last Post: vikkysingh
  [Canceled] The Abyss Open Matte and Regrade PDB 57 8,480 2020-06-25, 01:16 PM
Last Post: jithinmathew330
  [Archived] Harry Potter and the Chamber of Secrets (open matte) [Fundamental Collection™ #014] spoRv 9 4,817 2019-12-31, 09:18 PM
Last Post: spoRv
  [Archived] Harry Potter and the Half-Blood Prince (open matte) [Fundamental Collection™ #018] spoRv 8 5,850 2019-08-23, 10:17 PM
Last Post: spoRv
  [Canceled] Batman (1989) - Open Matte (Upscale Project ) PDB 65 40,129 2019-07-13, 01:08 PM
Last Post: FrankT
  [Archived] Harry Potter and the Order of the Phoenix (open matte) [Fundamental Collection™ #017] spoRv 6 4,865 2018-08-27, 09:43 PM
Last Post: ablehdTVer

Forum Jump:


Users browsing this thread: 1 Guest(s)