Thread Rating:
  • 0 Vote(s) - 0 Average
  • 1
  • 2
  • 3
  • 4
  • 5
Idea LOTR: The Fellowship of the Ring Netflix Rip.
#41
(2018-01-30, 03:27 PM)zoidberg Wrote: The first three Die Hards were all remastered a while back but Fox won't release them, although Die Hard has been on Netflix (and now on Apple 4K TV along with Predator).

Looks like Fox is finally releasing these 4K Die Hard masters, zoidberg! https://www.amazon.com/Die-Hard-4K-Blu-r...B07BF2SPZ3
Reply
Thanks given by:
#42
(2018-03-11, 03:33 PM)trondmm Wrote: I've actually got a 1080i recording of the Fellowship that I downloaded back in 2005 (that's what the timestamp says, anyway). There's no logo, and I've thrown away the nfo-file a long time ago, so I really don't know what the source is. It looks pretty similar to the Netflix screenshots, though.

[Image: mpv-shot0001.jpg]

[Image: mpv-shot0002.jpg]

[Image: mpv-shot0003.jpg]

[Image: mpv-shot0004.jpg]

[Image: mpv-shot0005.jpg]

[Image: mpv-shot0006.jpg]

Mediainfo:
Code:
General
ID                                       : 1002 (0x3EA)
Complete name                            : Lord of the Rings - The Fellowship of the Ring - 1080i.ts
Format                                   : MPEG-TS
File size                                : 22.2 GiB
Duration                                 : 2h 58mn
Overall bit rate mode                    : Variable
Overall bit rate                         : 17.8 Mbps

Video
ID                                       : 17 (0x11)
Menu ID                                  : 1 (0x1)
Format                                   : MPEG Video
Format version                           : Version 2
Format profile                           : Main@High
Format settings, BVOP                    : Yes
Format settings, Matrix                  : Custom
Format settings, GOP                     : M=3, N=15
Codec ID                                 : 2
Duration                                 : 2h 58mn
Bit rate mode                            : Variable
Bit rate                                 : 16.6 Mbps
Maximum bit rate                         : 17.0 Mbps
Width                                    : 1 920 pixels
Height                                   : 1 080 pixels
Display aspect ratio                     : 16:9
Frame rate                               : 29.970 (30000/1001) fps
Color space                              : YUV
Chroma subsampling                       : 4:2:0
Bit depth                                : 8 bits
Compression mode                         : Lossy
Bits/(Pixel*Frame)                       : 0.267
Time code of first frame                 : 18:20:57;08
Time code source                         : Group of pictures header
GOP, Open/Closed                         : Open
Stream size                              : 20.7 GiB (93%)

Audio
ID                                       : 20 (0x14)
Menu ID                                  : 1 (0x1)
Format                                   : AC-3
Format/Info                              : Audio Coding 3
Mode extension                           : CM (complete main)
Format settings, Endianness              : Big
Codec ID                                 : 129
Duration                                 : 2h 58mn
Bit rate mode                            : Constant
Bit rate                                 : 384 Kbps
Channel(s)                               : 6 channels
Channel positions                        : Front: L C R, Side: L R, LFE
Sampling rate                            : 48.0 KHz
Frame rate                               : 31.250 fps (1536 spf)
Compression mode                         : Lossy
Delay relative to video                  : -320ms
Stream size                              : 490 MiB (2%)

Woah! trondmm, would you by chance be able to privately send this to me? (via dropbox or google drive or something?) I would love to have this! Smile
Reply
Thanks given by:
#43
(2018-03-19, 04:35 AM)44rh1n Wrote: Looks like Fox is finally releasing these 4K Die Hard masters, zoidberg! https://www.amazon.com/Die-Hard-4K-Blu-r...B07BF2SPZ3

Here's hoping they remaster the blus too!
Reply
Thanks given by:
#44
(2018-03-19, 04:37 AM)44rh1n Wrote: Woah! trondmm, would you by chance be able to privately send this to me? (via dropbox or google drive or something?) I would love to have this! Smile

Sure.

My Google Drive is completely full at the moment, though, so I need to do a bit of cleanup before I can upload this. I hope to do that this weekend. I'll PM you when I've uploaded it.
Reply
Thanks given by: 44rh1n
#45
Does anyone have the screener DVD? id love to get a copy of it?
Reply
Thanks given by:
#46
(2018-03-20, 01:10 AM)trondmm Wrote:
(2018-03-19, 04:37 AM)44rh1n Wrote: Woah! trondmm, would you by chance be able to privately send this to me? (via dropbox or google drive or something?) I would love to have this! Smile

Sure.

My Google Drive is completely full at the moment, though, so I need to do a bit of cleanup before I can upload this. I hope to do that this weekend. I'll PM you when I've uploaded it.

I've started uploading now, and I'll PM you when it's done. 

trondmm Wrote: I really don't know what the source is.

I just realized that this logo was tacked on after the end credits. So that should settle the question about the source.

[Image: mpv-shot0254.jpg]
Reply
Thanks given by: 44rh1n
#47
(2018-03-20, 01:10 AM)trondmm Wrote:
(2018-03-19, 04:37 AM)44rh1n Wrote: Woah! trondmm, would you by chance be able to privately send this to me? (via dropbox or google drive or something?) I would love to have this! Smile

Sure.

My Google Drive is completely full at the moment, though, so I need to do a bit of cleanup before I can upload this. I hope to do that this weekend. I'll PM you when I've uploaded it.

Wow, trondmm, thank you so much for sending this!! Just sent you a PM. Smile
Reply
Thanks given by:
#48
Theres also an extended HD cap out there somewhere, ive got a 720p version of it, DVD grading.
Reply
Thanks given by:
#49
Very interested to know if this got any further, meaning the netflix rip and if not, have you considered pm'ing a active release group that does this type of thing. I did read through the posts and nobody said that yet.
Reply
Thanks given by:
#50
It's also on Amazon, might be easier to rip
Reply
Thanks given by:


Forum Jump:


Users browsing this thread: 1 Guest(s)