Thread Rating:
  • 0 Vote(s) - 0 Average
  • 1
  • 2
  • 3
  • 4
  • 5
Predator Itunes Master (Quick Project)
#21
There is a UHD release on the horizon
https://www.avpgalaxy.net/2018/05/22/pre...-releases/
Any problems in the blown out whites ect may be salvageable in a fan made UHD to BD project, as most of the problems Ive seen in screenshots look like choices in the conversion to SDR (Excluding the color grade).

Sorry if this is a derail of your thread PDB, I understand its is a itunes to BD project only Smile
Reply
Thanks given by: TomArrow
#22
There are a lot of 2160p rips from iTunes/Hulu showing up on public trackers from group GASMASK, maybe they'll do Predator sometime Tongue

Actually the said 4K Bluray is coming out this month - https://www.filmarena-eng.com/blu-ray-th...k-ultra-hd
Reply
Thanks given by:
#23
That's for the new movie coming out in September, I think the release date is actually in December (dd/mm/yy)
Reply
Thanks given by: Colek
#24
Hopefully, the UHD BD is vastly superior but in the meantime I'm still going to finish this up for a small release.

Because you never know with Fox...
New members: Please do not post or PM asking where to get something. Projects are for long term, participating members only. Stick around and make some friends
Reply
Thanks given by: Stamper
#25
For anyone still interested in this...I captured the stream 2 more times to make sure I had the best "streamed" parts for the whole film. Any improvement is very minor as it's still a stream but I'm trying to get the best pic possible. I did notice one way this master is a much better master then the 2008 BD. Apparently, Fox's dirt and scratch removal software was a little to aggressive in 2008 with the lightning at the end before the explosion. It removed or muted a lot of the optical effects. Some examples:

2008/Itunes
[Image: FMjrni4.jpg]

Anyway I'm rendering out of AP right now. Once the MKV is done, I'll upload it and keep it there for a short time only since I need the online space for other non-quick projects.
New members: Please do not post or PM asking where to get something. Projects are for long term, participating members only. Stick around and make some friends
Reply
Thanks given by: TomArrow , CSchmidlapp , applesandrice
#26
Looking forward to your final render PDB.
Reply
Thanks given by:
#27
Sign me up! Looks great.
Reply
Thanks given by:
#28
Cool comparison. Yeah, those DNR artifacts aren't new to me, have seen something similar in the comparisons of the Mummy & Mummy 2 BD vs. HD-DVD (the latter being less DNRed)
Reply
Thanks given by:
#29
After a few fits and starts with this project. I think I have fixed all the issues and I believe this is ready to go. Or as ready as it will ever be.

In the end, it is synced to the 2008 BD so you can pull in any soundtrack and subs from that to work here.

The Itunes was missing 1 frame that the 2008 had. I capped the same spot about 5 times to confirm and the one frame is just not there. So I dupped it with the preceding frame.

Here are the final details:

MKV Pics:
[Image: QQKFegv.jpg]

Mediainfo:
Format                                   : Matroska
Format version                           : Version 4 / Version 2
File size                                : 19.7 GiB
Duration                                 : 1 h 46 min
Overall bit rate mode                    : Variable
Overall bit rate                         : 26.5 Mb/s

Video
ID                                       : 1
Format                                   : AVC
Format/Info                              : Advanced Video Codec
Format profile                           : High@L4.1
Format settings, CABAC                   : Yes
Format settings, ReFrames                : 4 frames
Codec ID                                 : V_MPEG4/ISO/AVC
Duration                                 : 1 h 46 min
Bit rate mode                            : Variable
Bit rate                                 : 20.0 Mb/s
Maximum bit rate                         : 40.0 Mb/s
Width                                    : 1 920 pixels
Height                                   : 1 080 pixels
Display aspect ratio                     : 16:9
Frame rate mode                          : Constant
Frame rate                               : 23.976 (24000/1001) FPS
Color space                              : YUV
Chroma subsampling                       : 4:2:0
Bit depth                                : 8 bits
Scan type                                : Progressive
Bits/(Pixel*Frame)                       : 0.402
Stream size                              : 14.9 GiB (75%)
Title                                    : Predator (Itunes Master v1.2)
Writing library                          : x264 core 146 r2538 121396c
Encoding settings                        : cabac=1 / ref=4 / deblock=1:-1:-1 / analyse=0x3:0x113 / me=umh / subme=8 / psy=1 / psy_rd=1.00:0.15 / mixed_ref=1 / me_range=16 / chroma_me=1 / trellis=1 / 8x8dct=1 / cqm=0 / deadzone=21,11 / fast_pskip=1 / chroma_qp_offset=-3 / threads=12 / lookahead_threads=2 / sliced_threads=0 / slices=4 / nr=0 / decimate=1 / interlaced=0 / bluray_compat=1 / constrained_intra=0 / bframes=3 / b_pyramid=0 / b_adapt=2 / b_bias=0 / direct=3 / weightb=1 / open_gop=1 / weightp=1 / keyint=23 / keyint_min=1 / scenecut=40 / intra_refresh=0 / rc_lookahead=23 / rc=2pass / mbtree=1 / bitrate=20000 / ratetol=1.0 / qcomp=0.60 / qpmin=0 / qpmax=69 / qpstep=4 / cplxblur=20.0 / qblur=0.5 / vbv_maxrate=40000 / vbv_bufsize=30000 / nal_hrd=vbr / filler=0 / ip_ratio=1.40 / aq=1:1.00
Language                                 : English
Default                                  : Yes
Forced                                   : No
Color range                              : Limited
Color primaries                          : BT.709
Transfer characteristics                 : BT.709
Matrix coefficients                      : BT.709

Audio #1
ID                                       : 2
Format                                   : PCM
Codec ID                                 : A_PCM/INT/LIT
Duration                                 : 1 h 46 min
Bit rate mode                            : Constant
Bit rate                                 : 1 536 kb/s
Channel(s)                               : 2 channels
Sampling rate                            : 48.0 kHz
Frame rate                               : 32.000 FPS (1500 spf)
Bit depth                                : 16 bits
Stream size                              : 1.14 GiB (6%)
Title                                    : PCM 2.0 Dolby Surround (from the Widescreen Laserdisc)
Language                                 : English
Default                                  : Yes
Forced                                   : No

Audio #2
ID                                       : 3
Format                                   : AC-3
Format/Info                              : Audio Coding 3
Mode extension                           : CM (complete main)
Format settings, Endianness              : Big
Codec ID                                 : A_AC3
Duration                                 : 1 h 46 min
Bit rate mode                            : Constant
Bit rate                                 : 448 kb/s
Channel(s)                               : 4 channels
Channel positions                        : Front: L C R, Back: C
Sampling rate                            : 48.0 kHz
Frame rate                               : 31.250 FPS (1536 spf)
Compression mode                         : Lossy
Stream size                              : 342 MiB (2%)
Title                                    : Dolby Digital 4.0 (from the 2008 BD)
Language                                 : English
Default                                  : No
Forced                                   : No

Audio #3
ID                                       : 4
Format                                   : DTS
Format/Info                              : Digital Theater Systems
Format profile                           : MA / Core
Mode                                     : 16
Format settings, Endianness              : Big
Codec ID                                 : A_DTS
Duration                                 : 1 h 46 min
Bit rate mode                            : Variable / Constant
Bit rate                                 : 4 530 kb/s / 1 509 kb/s
Channel(s)                               : 6 channels
Channel positions                        : Front: L C R, Side: L R, LFE
Sampling rate                            : 48.0 kHz
Frame rate                               : 93.750 FPS (512 spf)
Bit depth                                : 24 bits
Compression mode                         : Lossless / Lossy
Stream size                              : 3.37 GiB (17%)
Title                                    : DTS-HD MA 5.1 (from the 2008 BD)
Language                                 : English
Default                                  : No
Forced                                   : No

Text
ID                                       : 5
Format                                   : PGS
Muxing mode                              : zlib
Codec ID                                 : S_HDMV/PGS
Codec ID/Info                            : Picture based subtitle format used on BDs/HD-DVDs
Duration                                 : 1 h 37 min
Bit rate                                 : 11.5 kb/s
Count of elements                        : 1346
Stream size                              : 8.03 MiB (0%)
Language                                 : English
Default                                  : No
Forced                                   : No

Menu
00:00:00.000                             : en:Chapter 00
00:04:04.285                             : en:Chapter 01
00:06:29.639                             : en:Chapter 02
00:10:32.465                             : en:Chapter 03
00:18:21.183                             : en:Chapter 04
00:20:21.553                             : en:Chapter 05
00:27:52.337                             : en:Chapter 06
00:31:04.279                             : en:Chapter 07
00:34:53.716                             : en:Chapter 08
00:37:49.600                             : en:Chapter 09
00:41:00.833                             : en:Chapter 10
00:46:33.373                             : en:Chapter 11
00:53:08.685                             : en:Chapter 12
01:01:37.402                             : en:Chapter 13
01:04:08.761                             : en:Chapter 14
01:08:09.919                             : en:Chapter 15
01:14:10.362                             : en:Chapter 16
01:15:50.212                             : en:Chapter 17
01:18:27.369                             : en:Chapter 18
01:20:55.016                             : en:Chapter 19
01:25:09.270                             : en:Chapter 20
01:34:31.832                             : en:Chapter 21
01:35:49.118                             : en:Chapter 22
01:39:58.659                             : en:Chapter 23
01:42:56.170                             : en:Chapter 24

I'm uploading now so it will take a few hours. If you want a copy please PM me.

I'm only going to keep the project uploaded for a week or two since I need the online space. Most likely I'm not going to put it anywhere else like the organ. I don't see the need since the UHD is coming.
New members: Please do not post or PM asking where to get something. Projects are for long term, participating members only. Stick around and make some friends
Reply
Thanks given by: zoidberg , TomArrow , Stamper , spoRv , applesandrice , vbangle
#30
Last call for any regular members. I need the space, so this is going to get dumped soon.
New members: Please do not post or PM asking where to get something. Projects are for long term, participating members only. Stick around and make some friends
Reply
Thanks given by:


Possibly Related Threads…
Thread Author Replies Views Last Post
  The Ring Original DVD/DVHS Colors (Quick Project) PDB 2 323 2019-12-11, 07:37 PM
Last Post: PDB
  Big Trouble in Little China Video Fix (Quick Project) PDB 23 1,256 2019-10-19, 10:21 PM
Last Post: Stamper
  Conan The Barbarian Theatrical Cut (Quick Project) PDB 26 2,253 2019-10-06, 08:06 PM
Last Post: PDB
  Tombstone Director's Cut HD + SD Upscaled (Quick Project) PDB 22 6,144 2019-09-20, 08:32 AM
Last Post: Colek
  Dawn of the Dead (35 Project #3) PDB 55 11,126 2019-06-11, 11:23 PM
Last Post: bronan
  Project A Part II (1987) quick regrade Serums 0 263 2019-06-06, 10:45 AM
Last Post: Serums
  Back To The Future - Open/Variable Matte (Upscale Project #1) PDB 40 20,155 2019-05-24, 02:27 AM
Last Post: PDB
  Alien 1999 HDTV Master (Quick Project) PDB 0 317 2019-05-22, 07:38 PM
Last Post: PDB
  Top Gun Open Matte (Quick Project) PDB 46 6,381 2019-05-07, 12:49 AM
Last Post: PDB
  Indiana Jones and the Temple of Doom Regrade (35 Project #1) PDB 38 12,201 2019-05-04, 11:32 AM
Last Post: maksnew

Forum Jump:


Users browsing this thread: 1 Guest(s)