Thread Rating:
  • 0 Vote(s) - 0 Average
  • 1
  • 2
  • 3
  • 4
  • 5
Top Gun Open Matte (Quick Project)
#1
[Image: LKIN9xp.png]

Top Gun Open Matte (Quick Project v3.0)

Project Info:
With the news of the new Top Gun 2 shooting, I wanted to revisit the original as I haven't seen it in a decade or so. I was content to wait for jerryshadoe's project but he seems to have not been active on the site in some time (hope he is ok). What I took away from his postings was the 2.39 version has too tight of head room. With that in mind I (second open matte was x5’s) tracked down the Bluebird Amazon open matte Web-DL. Although I love scope format, I had to agree with him that the old S35 transfer was tight and the open matte looked better, especially for the aerial shots.

From there I was ready to mux in the LD's PCM and watch until, on close inspection, I found out the open matte has a few problems.

First it has a ton of blocking and compression artifacts on the video.

Compression artifacts example
100x/200x
[Image: VrBitwS.jpg]


Finished (Deblock, Noise removal, etc)
100x/200x
[Image: pzMt1ML.jpg]

The open matte also uses the new (3D) color timing which I have no problem with outside of the pervasive red blanket over the picture. For that, I removed the red bias and balanced the highlights slightly away from yellow. Now the picture is still warm/yellow but now lack the blistering skin tones as they now tend to orange instead of red and the picture overall has more blue in it.

Orig/CC'd (some of the more extreme examples I could find)
[Image: apdyXyj.jpg]

One thing I couldn't fix are the blown highlights, they come with the original Web-DL. Overall this project is not perfect (it is a quick project) but much, much better then the original open matte. As a last step, I took out the Paramount 100 Years studio logo at the beginning and replaced it with a vintage era logo.

[Image: jfdDV8t.jpg]

For sound, I kept the OM's DTS 5.1 but added jerryshadoe's LD PCM sync (which sounds fantastic) and used Chewtobacca's re-sync timing. The existing EAC-3 and the BD soundtrack were mixed in.

Addendum: also added in the Widescreen LD’s AC-3. Rumored to culled from the 70mm tracks (thanks Zoidberg).

Finally, spoRv gave my a copy of his YAO subs which when turned on will mask the 1.77 picture down to the theatrical 2.39. FYI, the new logo at the beginning will be over cropped incorrectly but the rest of the movie works ok.


Video:
Bluebird Amazon open matte Web-DL (thanks X5) with de-blocking, noise removal and slight color correction. Plus studio logo and English title replacements (via another open matte source)

Audio:
1. PCM 2.0 Dolby Surround (from the widescreen LD, synced by jerry)
2. Dolby Digital 5.1 (from the widescreen LD, synced by zoidberg)
3. Dolby Digital+/EAC-3 5.1 (Original Web-DL Track)
4. DTS-HD MA 6.1 (from the BD)

Subs:
1. English
2. spoRv's YAO subs to watch the 1.77 open matte video in 2.39 mode (note the Paramount logo will be cropped with these subs on but the rest should play out just fine)

Pics:

Final MKV Pics
[Image: zIprJ0P.jpg]

YAO Subs
Open Matte/2.39 YAO subs
[Image: oBkNtmK.jpg]


Collaborators and Thanks (In order of help):
jerryshadoe: for the PCM rip and sync
Chewtobacca: for the re-sync calculation
spoRv: for the YAO subs
Doombot: for previewing the MKV and advice
X5gb: for a second better open matte source.
Zoidberg: for the AC-3 cap and sync from the widescreen LD
New members: Please do not PM or ask me where to get something. Projects are for long term, participating members only. Stick around and make some friends
Reply
Thanks given by: LucasGodzilla , nafroe , spoRv
#2
Dang, that's looking pretty good. I've always been curious as to how Top Gun would look open matted. I also quite like your added re-grade, especially the added blues. I'm also kind of surprised it's 25 gigabytes considering how compressed the original was (which I am also very glad you fixed).
[Image: ivwz24G.jpg]
Reply
Thanks given by:
#3
PDB, not sure if you realised but the BB AMZN WEB-DL is actually an encoded WEBRIP (rather than the full WEB-DL) which Maksnew obtained to begin with (to update the previous Mex iTunes one he had up prior on BB, which was really poor) not long after he managed to get the full 14.4mbps WEB-DL from AMZN DE which is slightly better overall. Maybe its too late to redo everything unless you have the tweaks in Premiere but if your interested pm me.

In the meantime have just pm'ed you in regards to this, wouldn't mind checking this out.

To replace the German text for the location indents (which were also zoomed in to remove the hardcoded English indents) and a few other translation subs did you use the Mex iTunes for the inserts which is what I did.
Reply
Thanks given by: PDB
#4
(2019-02-22, 08:17 PM)LucasGodzilla Wrote: Dang, that's looking pretty good. I've always been curious as to how Top Gun would look open matted. I also quite like your added re-grade, especially the added blues. I'm also kind of surprised it's 25 gigabytes considering how compressed the original was (which I am also very glad you fixed).

Thanks LucasGodzilla.

(2019-02-22, 08:43 PM)X5gb Wrote: PDB, not sure if you realised but the BB AMZN WEB-DL is actually an encoded WEBRIP (rather than the full WEB-DL) which Maksnew obtained to begin with (to update the previous Mex iTunes one he had up prior on BB, with which was really poor) not long after he managed to get the full 14.4mbps WEB-DL from AMZN DE which is slightly better overall. Maybe its too late to redo everything unless you have the tweaks in Premiere but if your interested pm me.

In the meantime have just pm'ed you in regards to this, wouldn't mind checking this out.

To replace the German text for the location indents and a few other translation subs did you use the Mex iTunes for the inserts which is what I did.

Dammit. Well serves me right for not asking around here first. I spent 60 hours alone of rendering just to get rid of the compression artifacts, not to mention the render time for the other work.

This was labeled WEB-DL (procured from the other Russian site) so I assumed at the time that it was the best that I could come up with.

Complete name                            : Top Gun (1986) WEB-DL 1080p [Open Matte] -BLUEBIRD.mkv
Format                                   : Matroska
Format version                           : Version 4 / Version 2
File size                                : 11.3 GiB
Duration                                 : 1 h 49 min
Overall bit rate                         : 14.7 Mb/s
Encoded date                             : UTC 2017-04-20 09:42:17
Writing application                      : mkvmerge v9.9.0 ('Pick Up') 64bit
Writing library                          : libebml v1.3.4 + libmatroska v1.4.5

Video
ID                                       : 1
Format                                   : AVC
Format/Info                              : Advanced Video Codec
Format profile                           : High@L4.1
Format settings                          : CABAC / 4 Ref Frames
Format settings, CABAC                   : Yes
Format settings, RefFrames               : 4 frames
Codec ID                                 : V_MPEG4/ISO/AVC
Duration                                 : 1 h 49 min
Bit rate                                 : 5 120 kb/s
Width                                    : 1 920 pixels
Height                                   : 1 080 pixels
Display aspect ratio                     : 16:9
Frame rate mode                          : Constant
Frame rate                               : 23.976 (24000/1001) FPS
Color space                              : YUV
Chroma subsampling                       : 4:2:0
Bit depth                                : 8 bits
Scan type                                : Progressive
Bits/(Pixel*Frame)                       : 0.103
Stream size                              : 3.75 GiB (33%)
Writing library                          : x264 core 142
Encoding settings                        : cabac=1 / ref=3 / deblock=1:0:0 / analyse=0x3:0x113 / me=hex / subme=7 / psy=1 / psy_rd=1.00:0.00 / mixed_ref=1 / me_range=16 / chroma_me=1 / trellis=1 / 8x8dct=1 / cqm=0 / deadzone=21,11 / fast_pskip=1 / chroma_qp_offset=-2 / threads=48 / lookahead_threads=8 / sliced_threads=0 / nr=0 / decimate=1 / interlaced=0 / bluray_compat=0 / constrained_intra=0 / bframes=6 / b_pyramid=2 / b_adapt=1 / b_bias=0 / direct=1 / weightb=1 / open_gop=0 / weightp=2 / keyint=200 / keyint_min=20 / scenecut=0 / intra_refresh=0 / rc_lookahead=40 / rc=2pass / mbtree=1 / bitrate=5120 / ratetol=1.0 / qcomp=0.60 / qpmin=0 / qpmax=69 / qpstep=4 / cplxblur=20.0 / qblur=0.5 / vbv_maxrate=7680 / vbv_bufsize=20480 / nal_hrd=none / filler=0 / ip_ratio=1.40 / aq=1:1.00
Language                                 : English
Default                                  : Yes
Forced                                   : No

Audio #1
ID                                       : 2
Format                                   : DTS
Format/Info                              : Digital Theater Systems
Codec ID                                 : A_DTS
Duration                                 : 1 h 49 min
Bit rate mode                            : Constant
Bit rate                                 : 1 509 kb/s
Channel(s)                               : 6 channels
Channel positions                        : Front: L C R, Side: L R, LFE
Sampling rate                            : 48.0 kHz
Frame rate                               : 93.750 FPS (512 SPF)
Bit depth                                : 24 bits
Compression mode                         : Lossy
Stream size                              : 1.16 GiB (10%)
Title                                    : Супербит
Language                                 : Russian
Default                                  : Yes
Forced                                   : No

Audio #2
ID                                       : 3
Format                                   : AC-3
Format/Info                              : Audio Coding 3
Codec ID                                 : A_AC3
Duration                                 : 1 h 49 min
Bit rate mode                            : Constant
Bit rate                                 : 192 kb/s
Channel(s)                               : 2 channels
Channel positions                        : Front: L R
Sampling rate                            : 48.0 kHz
Frame rate                               : 31.250 FPS (1536 SPF)
Bit depth                                : 16 bits
Compression mode                         : Lossy
Stream size                              : 151 MiB (1%)
Title                                    : СТС/Россия-1
Language                                 : Russian
Service kind                             : Complete Main
Default                                  : No
Forced                                   : No

Audio #3
ID                                       : 4
Format                                   : AC-3
Format/Info                              : Audio Coding 3
Codec ID                                 : A_AC3
Duration                                 : 1 h 49 min
Bit rate mode                            : Constant
Bit rate                                 : 192 kb/s
Channel(s)                               : 2 channels
Channel positions                        : Front: L R
Sampling rate                            : 48.0 kHz
Frame rate                               : 31.250 FPS (1536 SPF)
Bit depth                                : 16 bits
Compression mode                         : Lossy
Stream size                              : 151 MiB (1%)
Title                                    : 5 канал
Language                                 : Russian
Service kind                             : Complete Main
Default                                  : No
Forced                                   : No

Audio #4
ID                                       : 5
Format                                   : AC-3
Format/Info                              : Audio Coding 3
Codec ID                                 : A_AC3
Duration                                 : 1 h 49 min
Bit rate mode                            : Constant
Bit rate                                 : 192 kb/s
Channel(s)                               : 2 channels
Channel positions                        : Front: L R
Sampling rate                            : 48.0 kHz
Frame rate                               : 31.250 FPS (1536 SPF)
Bit depth                                : 16 bits
Compression mode                         : Lossy
Stream size                              : 151 MiB (1%)
Title                                    : НТВ+
Language                                 : Russian
Service kind                             : Complete Main
Default                                  : No
Forced                                   : No

Audio #5
ID                                       : 6
Format                                   : AC-3
Format/Info                              : Audio Coding 3
Codec ID                                 : A_AC3
Duration                                 : 1 h 49 min
Bit rate mode                            : Constant
Bit rate                                 : 224 kb/s
Channel(s)                               : 2 channels
Channel positions                        : Front: L R
Sampling rate                            : 48.0 kHz
Frame rate                               : 31.250 FPS (1536 SPF)
Bit depth                                : 16 bits
Compression mode                         : Lossy
Stream size                              : 176 MiB (2%)
Title                                    : Премьер Видео Фильм
Language                                 : Russian
Service kind                             : Complete Main
Default                                  : No
Forced                                   : No

Audio #6
ID                                       : 7
Format                                   : AC-3
Format/Info                              : Audio Coding 3
Codec ID                                 : A_AC3
Duration                                 : 1 h 49 min
Bit rate mode                            : Constant
Bit rate                                 : 448 kb/s
Channel(s)                               : 6 channels
Channel positions                        : Front: L C R, Side: L R, LFE
Sampling rate                            : 48.0 kHz
Frame rate                               : 31.250 FPS (1536 SPF)
Bit depth                                : 16 bits
Compression mode                         : Lossy
Stream size                              : 351 MiB (3%)
Title                                    : Юниверсал Пикчерс
Language                                 : Russian
Service kind                             : Complete Main
Default                                  : No
Forced                                   : No

Audio #7
ID                                       : 8
Format                                   : DTS
Format/Info                              : Digital Theater Systems
Codec ID                                 : A_DTS
Duration                                 : 1 h 49 min
Bit rate mode                            : Constant
Bit rate                                 : 1 509 kb/s
Channel(s)                               : 6 channels
Channel positions                        : Front: L C R, Side: L R, LFE
Sampling rate                            : 48.0 kHz
Frame rate                               : 93.750 FPS (512 SPF)
Bit depth                                : 24 bits
Compression mode                         : Lossy
Stream size                              : 1.16 GiB (10%)
Title                                    : А.Гаврилов
Language                                 : Russian
Default                                  : No
Forced                                   : No

Audio #8
ID                                       : 9
Format                                   : DTS
Format/Info                              : Digital Theater Systems
Codec ID                                 : A_DTS
Duration                                 : 1 h 49 min
Bit rate mode                            : Constant
Bit rate                                 : 1 509 kb/s
Channel(s)                               : 6 channels
Channel positions                        : Front: L C R, Side: L R, LFE
Sampling rate                            : 48.0 kHz
Frame rate                               : 93.750 FPS (512 SPF)
Bit depth                                : 24 bits
Compression mode                         : Lossy
Stream size                              : 1.16 GiB (10%)
Title                                    : Ю.Живов
Language                                 : Russian
Default                                  : No
Forced                                   : No

Audio #9
ID                                       : 10
Format                                   : AC-3
Format/Info                              : Audio Coding 3
Codec ID                                 : A_AC3
Duration                                 : 1 h 49 min
Bit rate mode                            : Constant
Bit rate                                 : 448 kb/s
Channel(s)                               : 6 channels
Channel positions                        : Front: L C R, Side: L R, LFE
Sampling rate                            : 48.0 kHz
Frame rate                               : 31.250 FPS (1536 SPF)
Bit depth                                : 16 bits
Compression mode                         : Lossy
Stream size                              : 351 MiB (3%)
Title                                    : А.Михалёв
Language                                 : Russian
Service kind                             : Complete Main
Default                                  : No
Forced                                   : No

Audio #10
ID                                       : 11
Format                                   : DTS
Format/Info                              : Digital Theater Systems
Codec ID                                 : A_DTS
Duration                                 : 1 h 49 min
Bit rate mode                            : Constant
Bit rate                                 : 1 509 kb/s
Channel(s)                               : 6 channels
Channel positions                        : Front: L C R, Side: L R, LFE
Sampling rate                            : 48.0 kHz
Frame rate                               : 93.750 FPS (512 SPF)
Bit depth                                : 24 bits
Compression mode                         : Lossy
Stream size                              : 1.16 GiB (10%)
Title                                    : М.Иванов
Language                                 : Russian
Default                                  : No
Forced                                   : No

Audio #11
ID                                       : 12
Format                                   : AC-3
Format/Info                              : Audio Coding 3
Codec ID                                 : A_AC3
Duration                                 : 1 h 49 min
Bit rate mode                            : Constant
Bit rate                                 : 192 kb/s
Channel(s)                               : 2 channels
Channel positions                        : Front: L R
Sampling rate                            : 48.0 kHz
Frame rate                               : 31.250 FPS (1536 SPF)
Bit depth                                : 16 bits
Compression mode                         : Lossy
Stream size                              : 151 MiB (1%)
Title                                    : В.Горчаков
Language                                 : Russian
Service kind                             : Complete Main
Default                                  : No
Forced                                   : No

Audio #12
ID                                       : 13
Format                                   : AC-3
Format/Info                              : Audio Coding 3
Codec ID                                 : A_AC3
Duration                                 : 1 h 49 min
Bit rate mode                            : Constant
Bit rate                                 : 192 kb/s
Channel(s)                               : 2 channels
Channel positions                        : Front: L R
Sampling rate                            : 48.0 kHz
Frame rate                               : 31.250 FPS (1536 SPF)
Bit depth                                : 16 bits
Compression mode                         : Lossy
Stream size                              : 151 MiB (1%)
Title                                    : Л.Володарский
Language                                 : Russian
Service kind                             : Complete Main
Default                                  : No
Forced                                   : No

Audio #13
ID                                       : 14
Format                                   : AC-3
Format/Info                              : Audio Coding 3
Codec ID                                 : A_AC3
Duration                                 : 1 h 49 min
Bit rate mode                            : Constant
Bit rate                                 : 192 kb/s
Channel(s)                               : 2 channels
Channel positions                        : Front: L R
Sampling rate                            : 48.0 kHz
Frame rate                               : 31.250 FPS (1536 SPF)
Bit depth                                : 16 bits
Compression mode                         : Lossy
Stream size                              : 151 MiB (1%)
Title                                    : Готлиб
Language                                 : Russian
Service kind                             : Complete Main
Default                                  : No
Forced                                   : No

Audio #14
ID                                       : 15
Format                                   : DTS
Format/Info                              : Digital Theater Systems
Codec ID                                 : A_DTS
Duration                                 : 1 h 49 min
Bit rate mode                            : Constant
Bit rate                                 : 1 509 kb/s
Channel(s)                               : 6 channels
Channel positions                        : Front: L C R, Side: L R, LFE
Sampling rate                            : 48.0 kHz
Frame rate                               : 93.750 FPS (512 SPF)
Bit depth                                : 24 bits
Compression mode                         : Lossy
Stream size                              : 1.16 GiB (10%)
Language                                 : English
Default                                  : No
Forced                                   : No

Text #1
ID                                       : 16
Format                                   : UTF-8
Codec ID                                 : S_TEXT/UTF8
Codec ID/Info                            : UTF-8 Plain Text
Duration                                 : 1 h 48 min
Bit rate                                 : 112 b/s
Count of elements                        : 1609
Stream size                              : 89.3 KiB (0%)
Language                                 : Russian
Default                                  : Yes
Forced                                   : No

Text #2
ID                                       : 17
Format                                   : UTF-8
Codec ID                                 : S_TEXT/UTF8
Codec ID/Info                            : UTF-8 Plain Text
Duration                                 : 1 h 40 min
Bit rate                                 : 59 b/s
Count of elements                        : 1386
Stream size                              : 43.4 KiB (0%)
Language                                 : English
Default                                  : No
Forced                                   : No

Text #3
ID                                       : 18
Format                                   : UTF-8
Codec ID                                 : S_TEXT/UTF8
Codec ID/Info                            : UTF-8 Plain Text
Duration                                 : 1 h 42 min
Bit rate                                 : 60 b/s
Count of elements                        : 1495
Stream size                              : 45.9 KiB (0%)
Language                                 : English
Default                                  : No
Forced                                   : No

Regardless, thanks for letting me know about another version, X5gb and pointing the way. A better version is always appreciated. I'm going to download it and see what my next step should be. Maybe a V3, especially if it retains any of the original grain. I used a S35 substitute for the grain (which helped the compression also) and would like to see what the original had. Hell even without grain, no compression artifacts is worth it. Really appreciate the heads up.

This version had all English for the locations so didn't have to swap anything yet.
New members: Please do not PM or ask me where to get something. Projects are for long term, participating members only. Stick around and make some friends
Reply
Thanks given by:
#5
Unfortunately, the one you have worked on isn't even the WEBRIP but the original Mex iTunes WEB-DL based on those specs (which is what I used to replace the German location indents, zoomed in as well to remove original English indents, and text translations, dinner invite and realtor/estate agent rent sign, adding a grain plate to them) in the De WEB-DL. There are still alot of artefacts in it but the grain is obviously better retained, big difference between 5.1mpbs and 14.7mps. Would be very nice to have a artifact reduced and color corrected version of the full AMZN one if you decide to redo it.
Reply
Thanks given by:
#6
(2019-02-22, 10:09 PM)X5gb Wrote: Unfortunately, the one you have worked on isn't even the WEBRIP but the original Mex iTunes one based on those specs which is what I used to replace the German location indents (zoomed in as well to remove original English indents) and text translations (dinner invite and realtor/estate agent rent sign) De WEB-DL. There are still alot of artefacts in it but the grain is obviously better retained, big difference between 5.1mpbs and 14.7mps. Would be very nice to have a artifact reduced and color corrected version of the AMZN one if you decide to redo it.

Sigh, can't trust labels Smile. Yeah 14 is a lot better head room.

I think, knowing this now, I have to do a new one. Thanks again X5gb.

So let's put this project into turnaround for a bit...
New members: Please do not PM or ask me where to get something. Projects are for long term, participating members only. Stick around and make some friends
Reply
Thanks given by:
#7
Based off your previous statements, x5gb, and me searching around, these are the spots I found that need replaced so far:

1. The text leading up to the title Top Gun “...they call it, Top Gun”

2. The Indian Ocean ident after the titles/credits.

3. The Miramar indent after being told they are being sent to Top Gun

4. The translation of the letter to meet at 5:30

5. The translation of the rental sign

6. The second Indian Ocean indent after graduation
New members: Please do not PM or ask me where to get something. Projects are for long term, participating members only. Stick around and make some friends
Reply
Thanks given by:
#8
Thats correct, accidently deleted my post offering the frames if you need them. AMZN is frame matched to 3d bluray outside of the extended 3d credits at the end of bluray which are not needed anyway.

As I'm sure you have noticed the AMZN is still not perfect (although a damn sight better than the Mex iTunes) and will need your expertise to remove some artifacts as well as your color correction.
Reply
Thanks given by:
#9
I can make YAO subs to let the logo (and other parts if needed) be open matte; just send me the exact timing of the open matte parts - but it will be ready not before wednesday, though!
Reply
Thanks given by:
#10
I do appreciate the irony that anytime I call something a quick project, that it takes just as long as any other project Smile

(2019-02-24, 02:53 AM)spoRv Wrote: I can make YAO subs to let the logo (and other parts if needed) be open matte; just send me the exact timing of the open matte parts - but it will be ready not before wednesday, though!

No rush spoRv, still got to render a new video stream and that will be a few days. Otherwise this 1.77 logo

[Image: jfdDV8t.jpg]

lasts till 00:00:22:04 and after that it should be 2.39/2.35

(2019-02-23, 07:11 PM)X5gb Wrote: Thats correct, accidently deleted my post offering the frames if you need them. AMZN is frame matched to 3d bluray outside of the extended 3d credits at the end of bluray which are not needed anyway.

Yeah it appears to have one more frame in the beginning and a few at the end compared to the Mex video. So I will have to do a little re-syncing but nothing big. I'm going to keep the EAC-3/DD+ 5.1 from the AMZN and dump the DTS 5.1. I still expect the LD's PCM to be the primary track since it sounds much better then any of the 5.1s.

If anyone has any soundtracks or subs that are already in sync with the 3D that they want me to add, please chime in now.

(2019-02-23, 07:11 PM)X5gb Wrote: As I'm sure you have noticed the AMZN is still not perfect (although a damn sight better than the Mex iTunes) and will need your expertise to remove some artifacts

Yes it is much better, especially for the 2 or 3 shots where the Mex video went to pixel city. Expertise is perhaps overselling my skills by a large margin but I was able to mitigate a fair amount of the compression artifacts (those odd hatchet lines). The problem is, unlike the Mex video, this still has grain so I have to try to preserve the grain as much as possible while removing the artifacts. So with some non-halo producing sharpening, line/edge blurring and noise reduction I am able to get this so far on a first pass (all images are already CC'd):

Compression artifacts example
100x/200x
[Image: VrBitwS.jpg]


Finished (Deblock, Noise removal, etc)
100x/200x
[Image: pzMt1ML.jpg]

but I'm still tweaking it.

(2019-02-23, 07:11 PM)X5gb Wrote: as well as your color correction.

Which is the easy part since it's already done but I realized I should include some examples so people can see if it's worth it

Orig/CC'd (some of the more extreme examples I could find)
[Image: apdyXyj.jpg]

Otherwise thanks again for the help X5gb, you did most of the leg work for this, hopefully the compression and color correct make it worth a download.

Also again I like to point out how great a community this is. Members always generously help out to make good projects better.
New members: Please do not PM or ask me where to get something. Projects are for long term, participating members only. Stick around and make some friends
Reply
Thanks given by:


Possibly Related Threads…
Thread Author Replies Views Last Post
  Conan The Barbarian Theatrical Cut (Quick Project) PDB 19 944 Yesterday, 03:28 AM
Last Post: PDB
  [Released] Harry Potter saga - open matte spoRv 368 115,276 2019-08-16, 11:39 PM
Last Post: TomArrow
  The Fellowship of the Ring Variable Aspect Ratio aka “Open Matte" (Quick Project) PDB 38 3,020 2019-08-09, 11:05 AM
Last Post: Smeagol
  [Released] Equilibrium 2002 VAR Open Matte Crossmux TomArrow 15 3,123 2019-08-06, 06:32 PM
Last Post: Hitcher
  Dawn of the Dead (35 Project #3) PDB 55 9,108 2019-06-11, 11:23 PM
Last Post: bronan
  Project A Part II (1987) quick regrade Serums 0 150 2019-06-06, 10:45 AM
Last Post: Serums
  Back To The Future - Open/Variable Matte (Upscale Project #1) PDB 40 18,670 2019-05-24, 02:27 AM
Last Post: PDB
  Alien 1999 HDTV Master (Quick Project) PDB 0 156 2019-05-22, 07:38 PM
Last Post: PDB
  Indiana Jones and the Temple of Doom Regrade (35 Project #1) PDB 38 10,553 2019-05-04, 11:32 AM
Last Post: maksnew
  Predator (1987) Open Matte ilovewaterslides 2 1,624 2019-05-03, 03:05 PM
Last Post: maksnew

Forum Jump:


Users browsing this thread: 1 Guest(s)