Thread Rating:
  • 0 Vote(s) - 0 Average
  • 1
  • 2
  • 3
  • 4
  • 5
[Released] Mad Max (1979) original color timing & mix
#11
Code:
General
Unique ID                                : 46061820183579857429562344353705807277 (0x22A72F12A8890008E87F413F9748CDAD)
Complete name                            : MadMaxEuropeanWarnerDVD24fpsPreserv.mkv
Format                                   : Matroska
Format version                           : Version 4
File size                                : 7.19 GiB
Duration                                 : 1h 32mn
Overall bit rate mode                    : Variable
Overall bit rate                         : 11.1 Mbps
Movie name                               : Mad Max
Encoded date                             : UTC 2019-04-11 16:19:12
Writing application                      : mkvmerge v7.9.0 ('Birds') 64bit
Writing library                          : libebml v1.3.1 + libmatroska v1.4.2

Video
ID                                       : 1
Format                                   : MPEG Video
Format version                           : Version 2
Format profile                           : Main@Main
Format settings                          : CustomMatrix / BVOP
Format settings, BVOP                    : Yes
Format settings, Matrix                  : Custom
Format settings, GOP                     : M=3, N=15
Codec ID                                 : V_MPEG2
Codec ID/Info                            : MPEG 1 or 2 Video
Duration                                 : 1h 32mn
Bit rate mode                            : Variable
Bit rate                                 : 5 264 Kbps
Maximum bit rate                         : 7 500 Kbps
Width                                    : 720 pixels
Height                                   : 576 pixels
Display aspect ratio                     : 16:9
Frame rate mode                          : Constant
Frame rate                               : 23.976 (24000/1001) fps
Color space                              : YUV
Chroma subsampling                       : 4:2:0
Bit depth                                : 8 bits
Scan type                                : Progressive
Scan order                               : Top Field First
Compression mode                         : Lossy
Bits/(Pixel*Frame)                       : 0.529
Time code of first frame                 : 00:59:58:18
Time code source                         : Group of pictures header
GOP, Open/Closed                         : Open
GOP, Open/Closed of first frame          : Closed
Stream size                              : 3.41 GiB (48%)
Default                                  : Yes
Forced                                   : No

Audio #1
ID                                       : 2
Format                                   : AC-3
Format/Info                              : Audio Coding 3
Commercial name                          : Dolby Digital
Codec ID                                 : A_AC3
Duration                                 : 1h 32mn
Bit rate mode                            : Constant
Bit rate                                 : 640 Kbps
Channel(s)                               : 2 channels
Channel layout                           : L R
Sampling rate                            : 48.0 KHz
Frame rate                               : 31.250 fps (1536 SPF)
Bit depth                                : 16 bits
Compression mode                         : Lossy
Stream size                              : 425 MiB (6%)
Title                                    : Original Australian mono 2.0 from DVD
Language                                 : aus
Service kind                             : Complete Main
Default                                  : Yes
Forced                                   : No

Audio #2
ID                                       : 3
Format                                   : AC-3
Format/Info                              : Audio Coding 3
Commercial name                          : Dolby Digital
Codec ID                                 : A_AC3
Duration                                 : 1h 32mn
Bit rate mode                            : Constant
Bit rate                                 : 640 Kbps
Channel(s)                               : 2 channels
Channel layout                           : L R
Sampling rate                            : 48.0 KHz
Frame rate                               : 31.250 fps (1536 SPF)
Bit depth                                : 16 bits
Compression mode                         : Lossy
Stream size                              : 425 MiB (6%)
Title                                    : Original American Dub mono 2.0 from DVD
Language                                 : English
Service kind                             : Complete Main
Default                                  : No
Forced                                   : No

Audio #3
ID                                       : 4
Format                                   : DTS XLL
Format/Info                              : Digital Theater Systems
Commercial name                          : DTS-HD Master Audio
Codec ID                                 : A_DTS
Duration                                 : 1h 32mn
Bit rate mode                            : Variable
Bit rate                                 : 1 713 Kbps
Channel(s)                               : 2 channels
Channel layout                           : L R
Sampling rate                            : 48.0 KHz
Frame rate                               : 93.750 fps (512 SPF)
Bit depth                                : 16 bits
Compression mode                         : Lossless
Delay relative to video                  : 2ms
Stream size                              : 1.11 GiB (15%)
Title                                    : Original American Dub Lossless 2.0 from Blu-ray
Language                                 : English
Default                                  : No
Forced                                   : No

Audio #4
ID                                       : 5
Format                                   : AC-3
Format/Info                              : Audio Coding 3
Commercial name                          : Dolby Digital
Codec ID                                 : A_AC3
Duration                                 : 1h 32mn
Bit rate mode                            : Constant
Bit rate                                 : 640 Kbps
Channel(s)                               : 2 channels
Channel layout                           : L R
Sampling rate                            : 48.0 KHz
Frame rate                               : 31.250 fps (1536 SPF)
Bit depth                                : 16 bits
Compression mode                         : Lossy
Stream size                              : 425 MiB (6%)
Title                                    : Original French mono 2.0 from DVD
Language                                 : French
Service kind                             : Complete Main
Default                                  : No
Forced                                   : No

Audio #5
ID                                       : 6
Format                                   : AC-3
Format/Info                              : Audio Coding 3
Commercial name                          : Dolby Digital
Codec ID                                 : A_AC3
Duration                                 : 1h 32mn
Bit rate mode                            : Constant
Bit rate                                 : 224 Kbps
Channel(s)                               : 2 channels
Channel layout                           : L R
Sampling rate                            : 48.0 KHz
Frame rate                               : 31.250 fps (1536 SPF)
Bit depth                                : 16 bits
Compression mode                         : Lossy
Delay relative to video                  : 12ms
Stream size                              : 149 MiB (2%)
Title                                    : Original French Stereo 2.0 from Blu-ray
Language                                 : French
Service kind                             : Complete Main
Default                                  : No
Forced                                   : No

Audio #6
ID                                       : 7
Format                                   : AC-3
Format/Info                              : Audio Coding 3
Commercial name                          : Dolby Digital
Codec ID                                 : A_AC3
Duration                                 : 1h 32mn
Bit rate mode                            : Constant
Bit rate                                 : 640 Kbps
Channel(s)                               : 2 channels
Channel layout                           : L R
Sampling rate                            : 48.0 KHz
Frame rate                               : 31.250 fps (1536 SPF)
Bit depth                                : 16 bits
Compression mode                         : Lossy
Stream size                              : 425 MiB (6%)
Title                                    : Original Spanish mono 2.0 from DVD
Language                                 : Spanish
Service kind                             : Complete Main
Default                                  : No
Forced                                   : No

Audio #7
ID                                       : 8
Format                                   : AC-3
Format/Info                              : Audio Coding 3
Commercial name                          : Dolby Digital
Codec ID                                 : A_AC3
Duration                                 : 1h 32mn
Bit rate mode                            : Constant
Bit rate                                 : 640 Kbps
Channel(s)                               : 2 channels
Channel layout                           : L R
Sampling rate                            : 48.0 KHz
Frame rate                               : 31.250 fps (1536 SPF)
Bit depth                                : 16 bits
Compression mode                         : Lossy
Stream size                              : 425 MiB (6%)
Title                                    : Original German mono 2.0 from DVD
Language                                 : German
Service kind                             : Complete Main
Default                                  : No
Forced                                   : No

Audio #8
ID                                       : 9
Format                                   : AC-3
Format/Info                              : Audio Coding 3
Commercial name                          : Dolby Digital
Codec ID                                 : A_AC3
Duration                                 : 1h 32mn
Bit rate mode                            : Constant
Bit rate                                 : 640 Kbps
Channel(s)                               : 2 channels
Channel layout                           : L R
Sampling rate                            : 48.0 KHz
Frame rate                               : 31.250 fps (1536 SPF)
Bit depth                                : 16 bits
Compression mode                         : Lossy
Stream size                              : 425 MiB (6%)
Title                                    : Original Italian mono 2.0 from DVD
Language                                 : Italian
Service kind                             : Complete Main
Default                                  : No
Forced                                   : No

Text #1
ID                                       : 10
Format                                   : PGS
Muxing mode                              : zlib
Codec ID                                 : S_HDMV/PGS
Codec ID/Info                            : Picture based subtitle format used on BDs/HD-DVDs
Duration                                 : 1h 29mn
Bit rate                                 : 8 959 bps
Count of elements                        : 1906
Stream size                              : 5.71 MiB (0%)
Language                                 : English
Default                                  : Yes
Forced                                   : No

Text #2
ID                                       : 11
Format                                   : PGS
Muxing mode                              : zlib
Codec ID                                 : S_HDMV/PGS
Codec ID/Info                            : Picture based subtitle format used on BDs/HD-DVDs
Duration                                 : 1h 32mn
Bit rate                                 : 91 bps
Count of elements                        : 26
Stream size                              : 61.6 KiB (0%)
Language                                 : French
Default                                  : No
Forced                                   : No

Text #3
ID                                       : 12
Format                                   : PGS
Muxing mode                              : zlib
Codec ID                                 : S_HDMV/PGS
Codec ID/Info                            : Picture based subtitle format used on BDs/HD-DVDs
Duration                                 : 1h 32mn
Bit rate                                 : 7 934 bps
Count of elements                        : 1362
Stream size                              : 5.22 MiB (0%)
Language                                 : Spanish
Default                                  : No
Forced                                   : No

Text #4
ID                                       : 13
Format                                   : PGS
Muxing mode                              : zlib
Codec ID                                 : S_HDMV/PGS
Codec ID/Info                            : Picture based subtitle format used on BDs/HD-DVDs
Duration                                 : 1h 32mn
Bit rate                                 : 8 748 bps
Count of elements                        : 1644
Stream size                              : 5.76 MiB (0%)
Language                                 : German
Default                                  : No
Forced                                   : No

Text #5
ID                                       : 14
Format                                   : PGS
Muxing mode                              : zlib
Codec ID                                 : S_HDMV/PGS
Codec ID/Info                            : Picture based subtitle format used on BDs/HD-DVDs
Duration                                 : 1h 32mn
Bit rate                                 : 8 736 bps
Count of elements                        : 1636
Stream size                              : 5.75 MiB (0%)
Language                                 : Italian
Default                                  : No
Forced                                   : No
Reply
Thanks given by:
#12
Yes it’s 720x576 but displays at 1024x576 like all anamorphic Pal DVDs.

Frame rate was hardcoded in the stream.

We may add a VHS mono rip from the widescreen UK Pal VHS once the rip is done.
Will make a nice bonus addition to the sole mono Australian track.
Reply
Thanks given by:
#13
To whom it may concern: I got a 2TB HDD for "fast cache" (until I can afford 8TB or more), and I have a faster internet connection; now, I could make the MM1 HDTV Japanese cap sub-free; I'm lazy, so someone should provide me:
- the untouched HDTV cap (not the re-encode)
- the untouched PAL DVD
- possibly a simple script that put in sync the former with the latter, so any audio tracks will be in sync.

Ready to make it in few days, before I'll start to work to one of my many many TOO many unfinished projects - and then it will be too late! Big Grin
Reply
Thanks given by: The Aluminum Falcon
#14
Stamper's MKV is the untouched video stream from the PAL DVD.  I've already sent the script via PM.  Lazy cat!
Reply
Thanks given by: The Aluminum Falcon
#15
Meow! Prr, prr... Happy
Reply
Thanks given by:
#16
Did that 5.1 mix have the original audio in the center?
Reply
Thanks given by:
#17
Quote:Stamper:
I was hoping maybe the Roadshow center channel could be the mono mix intact, and could be extracted and use on it's own. Alas is has the new foleys added there too.
https://forum.fanres.com/thread-2593-pos...l#pid52290



HDTV looks like a master video from old Warner DVD.
So there is big possibility that 5.1 audio is not Chace remix...
Reply
Thanks given by:
#18
^ What 5.1 audio is not the Chace remix?
Reply
Thanks given by:
#19
I mean on HDTVRip 5.1 audio.
There's never been anything written about it.
Reply
Thanks given by:
#20
It's a cap. And the audio's 2.0, the American dub, and not likely to be very useful.
Reply
Thanks given by:


Possibly Related Threads…
Thread Author Replies Views Last Post
  The Last of the Mohicans - Original Theatrical Cut - BD-50 - Shadoe jerryshadoe 47 19,101 2020-07-23, 05:26 PM
Last Post: PDB
Information The Sword In The Stone Open Matte Original Theatrical Mono 1963 Multiaudio Multisubs. jerryshadoe 81 50,215 2020-07-17, 09:05 PM
Last Post: Grim
  44rh1n’s “The Fellowship of the Ring” Extended Edition Color Restoration 44rh1n 27 12,215 2020-06-14, 08:44 PM
Last Post: MuddyTodd
  [Released] Alien (1979) [Fundamental Collection™ #001] spoRv 56 26,001 2020-05-09, 06:04 PM
Last Post: Moiizty
  [Released] Mad Max (1979) [DEFΙΠΙTΙVΔ #001] spoRv 9 1,816 2020-04-10, 01:09 AM
Last Post: PDB
  The Ring Original DVD/DVHS Colors (Quick Project) PDB 6 1,241 2019-12-30, 05:10 AM
Last Post: PDB
  [Released] HALLOWEEN: Evil Waits (2013 regrade with new prologue and original mono audio) pipefan413 5 1,127 2019-10-31, 04:36 PM
Last Post: pipefan413
  Star Trek: The Motion Picture (1979) - theatrical reconstruction jonno 13 4,949 2019-10-31, 03:17 PM
Last Post: PDB
  [Released] The Warriors (1979) Theatrical Cut HDTV [preservation] zoidberg 24 15,996 2019-10-01, 07:37 AM
Last Post: zoidberg
  [Released] Wallace & Gromit in "The Wrong Trousers" - Original Audio Preservation Dek Rollins 4 2,115 2018-04-24, 12:13 AM
Last Post: FrankT

Forum Jump:


Users browsing this thread: 1 Guest(s)