Thread Rating:
  • 0 Vote(s) - 0 Average
  • 1
  • 2
  • 3
  • 4
  • 5
Fan edit E.T. - The Extra-Terrestrial FanCut 1982 German DL 1080p BluRay AVC Remux
#1
NFO:
Quote:Grundlage des FanCuts ist die Kinofassung, in die 2 Szenen eingefügt wurden. Zum Einen die Szene, in der E.T. in der Badewanne liegt und die Szene mit dem brennenden Kürbis.

German to English Translate

Quote:Basis of the FanCuts is the Theatrical version, in which 2 scenes were inserted. First, the scene in which E.T. lying in the bathtub and the scene with the burning pumpkin.

MediaInfo:

Quote:General
Format : Matroska
Format version : Version 4 / Version 2
File size : 21.2 GiB
Duration : 1 h 57 min
Overall bit rate mode : Variable
Overall bit rate : 25.8 Mb/s
Encoded date : UTC 2019-05-12 19:05:52
Writing application : mkvmerge v33.1.0 ('Primrose') 64-bit
Writing library : libebml v1.3.7 + libmatroska v1.5.0

Video
ID : 1
Format : AVC
Format/Info : Advanced Video Codec
Format profile : High@L4.2
Format settings : CABAC / 2 Ref Frames
Format settings, CABAC : Yes
Format settings, RefFrames : 2 frames
Codec ID : V_MPEG4/ISO/AVC
Duration : 1 h 57 min
Bit rate mode : Variable
Bit rate : 21.7 Mb/s
Maximum bit rate : 26.0 Mb/s
Width : 1 920 pixels
Height : 1 080 pixels
Display aspect ratio : 16:9
Frame rate mode : Constant
Frame rate : 23.976 (24000/1001) FPS
Color space : YUV
Chroma subsampling : 4:2:0
Bit depth : 8 bits
Scan type : Progressive
Bits/(Pixel*Frame) : 0.436
Stream size : 17.9 GiB (84%)
Default : Yes
Forced : No

Audio #1
ID : 2
Format : DTS
Format/Info : Digital Theater Systems
Format profile : HRA / Core
Mode : 16
Format settings, Endianness : Big
Codec ID : A_DTS
Duration : 1 h 57 min
Bit rate mode : Constant
Bit rate : 2 046 kb/s / 1 509 kb/s
Channel(s) : 6 channels
Channel positions : Front: L C R, Side: L R, LFE
Sampling rate : 48.0 kHz
Frame rate : 93.750 FPS (512 SPF)
Bit depth : 16 bits
Compression mode : Lossy
Stream size : 1.69 GiB (8%)
Language : German
Default : Yes
Forced : No

Audio #2
ID : 3
Format : DTS
Format/Info : Digital Theater Systems
Format profile : HRA / Core
Mode : 16
Format settings, Endianness : Big
Codec ID : A_DTS
Duration : 1 h 57 min
Bit rate mode : Constant
Bit rate : 2 046 kb/s / 1 509 kb/s
Channel(s) : 6 channels
Channel positions : Front: L C R, Side: L R, LFE
Sampling rate : 48.0 kHz
Frame rate : 93.750 FPS (512 SPF)
Bit depth : 16 bits
Compression mode : Lossy
Stream size : 1.69 GiB (8%)
Language : English
Default : No
Forced : No

Text #1
ID : 4
Format : UTF-8
Codec ID : S_TEXT/UTF8
Codec ID/Info : UTF-8 Plain Text
Duration : 51 min 5 s
Bit rate : 0 b/s
Count of elements : 4
Stream size : 37.0 Bytes (0%)
Title : German Forced Subs
Language : German
Default : Yes
Forced : Yes

Text #2
ID : 5
Format : UTF-8
Codec ID : S_TEXT/UTF8
Codec ID/Info : UTF-8 Plain Text
Duration : 1 h 51 min
Bit rate : 32 b/s
Count of elements : 955
Stream size : 26.3 KiB (0%)
Title : German Fullsubs
Language : German
Default : No
Forced : No

Text #3
ID : 6
Format : UTF-8
Codec ID : S_TEXT/UTF8
Codec ID/Info : UTF-8 Plain Text
Duration : 1 h 51 min
Bit rate : 40 b/s
Count of elements : 1243
Stream size : 33.1 KiB (0%)
Title : English
Language : English
Default : No
Forced : No
Reply
Thanks given by:
#2
Original title is E.T. - The Extra-Terrestrial, not German title. Smile
Reply
Thanks given by:
#3
Done!
Reply
Thanks given by:


Possibly Related Threads…
Thread Author Replies Views Last Post
  [Released] Daredevil (2003) Theatrical Cut 1080p zoidberg 29 8,716 2019-11-04, 04:28 AM
Last Post: kgbeast
  [Released] The Thing (1982) [Fundamental Collection™ #005] spoRv 81 34,318 2019-08-18, 11:44 AM
Last Post: fandeep
  [In progress] Where Eagles Dare English + German Dub w/ intermission Stamper 19 6,934 2019-03-07, 04:36 PM
Last Post: Vlaflip
  [Fan edit] Raiders of the Lost Ark - Soderbergh version remux spoRv 3 3,035 2019-02-27, 05:56 PM
Last Post: Inq81
  Cool World - Unofficial Bluray Colek 2 1,701 2017-05-12, 05:22 PM
Last Post: PDB

Forum Jump:


Users browsing this thread: 1 Guest(s)