Thread Rating:
  • 0 Vote(s) - 0 Average
  • 1
  • 2
  • 3
  • 4
  • 5
[Canceled] The Abyss Open Matte and Regrade
#71
(2021-02-07, 12:52 PM)Hitcher Wrote: Is the directors cut still in the works?

I'm waiting for that too Smile
Reply
Thanks given by:
#72
Abyss 1989 Special Edition Hybrid Open Matte 1080p WEBRip DTS 5.1 x264-random0

The Hybrid made with AutoOverlay AviSynth plugin.

Sources: WEB-DL Amazon OAR, 2 x HDTV Special Edition Open Matte

The scenes of the extended version are taken from HDTV and stylized as a theatrical version.

DTS sound taken from the Chinese DVD R6


[Image: ME1DQ5M_t.png][Image: ME1DQ5S_t.png]
[Image: ME1DQ5Q_t.png][Image: ME1DQ5O_t.png]
[Image: ME1DQ5T_t.png][Image: ME1DQ5P_t.png]
[Image: ME1DQ5R_t.png][Image: ME1DQ5N_t.png]
Reply
Thanks given by: Stamper , X5gb , Hitcher , NeonBible , interaser
#73
Is this the same as Upscaled Open Matte (released this june)?

There are so many versions of this, I'm now completely confused. This look very good though.
Reply
Thanks given by:
#74
Most of the film is a quality WEB DL theatrical version. Expanded scenes and missing top and bottom images are taken from HDTV, color rendering everywhere is done as in WEB. The screenshots show the difference compared to the original HDTV. This is the best quality source for the director's cut, everything else was not even close.

General
Unique ID                                : 138032549380284981873089495675225899647 (0x67D81A1DAA602C005CFEEEFDD5EA027F)
Format                                  : Matroska
Format version                          : Version 4
File size                                : 28.5 GiB
Duration                                : 2 h 50 min
Overall bit rate                        : 23.9 Mb/s
Encoded date                            : UTC 2021-06-25 08:21:53
Writing application                      : mkvmerge v55.0.0 ('Waiting For Space') 64-bit
Writing library                          : libebml v1.4.2 + libmatroska v1.6.4

Video
ID                                      : 1
Format                                  : AVC
Format/Info                              : Advanced Video Codec
Format profile                          : High@L4.1
Format settings                          : CABAC / 4 Ref Frames
Format settings, CABAC                  : Yes
Format settings, Reference frames        : 4 frames
Codec ID                                : V_MPEG4/ISO/AVC
Duration                                : 2 h 50 min
Bit rate                                : 22.4 Mb/s
Width                                    : 1 920 pixels
Height                                  : 1 080 pixels
Display aspect ratio                    : 16:9
Frame rate mode                          : Constant
Frame rate                              : 23.976 (24000/1001) FPS
Color space                              : YUV
Chroma subsampling                      : 4:2:0
Bit depth                                : 8 bits
Scan type                                : Progressive
Bits/(Pixel*Frame)                      : 0.450
Stream size                              : 26.7 GiB (94%)
Writing library                          : x264 core 161 r3027+53 2464769 t_mod_New [(8 & 10)-bit@all X86_64]
Encoding settings                        : cabac=1 / ref=4 / deblock=1:-3:-3 / analyse=0x3:0x113 / me=umh / subme=11 / psy=1 / fade_compensate=0.00 / psy_rd=1.10:0.00 / mixed_ref=1 / me_range=32 / chroma_me=1 / trellis=2 / 8x8dct=1 / cqm=0 / deadzone=21,11 / fast_pskip=0 / chroma_qp_offset=-2 / threads=12 / lookahead_threads=2 / sliced_threads=0 / nr=0 / decimate=1 / interlaced=0 / bluray_compat=0 / constrained_intra=0 / fgo=0 / bframes=8 / b_pyramid=2 / b_adapt=2 / b_bias=0 / direct=1 / weightb=1 / open_gop=0 / weightp=2 / keyint=240 / keyint_min=23 / scenecut=40 / intra_refresh=0 / rc_lookahead=40 / rc=crf / mbtree=0 / crf=17.0000 / qcomp=0.60 / qpmin=0:0:0 / qpmax=69:69:69 / qpstep=4 / vbv_maxrate=62500 / vbv_bufsize=78125 / crf_max=0.0 / nal_hrd=none / filler=0 / ip_ratio=1.40 / pb_ratio=1.30 / aq=3:0.80 / aq-sensitivity=10.00 / aq-factor=1.00:1.00:1.00 / aq2=0 / aq3=0
Default                                  : Yes
Forced                                  : No
Color range                              : Limited
Color primaries                          : BT.709
Transfer characteristics                : BT.709
Matrix coefficients                      : BT.709

Audio
ID                                      : 2
Format                                  : DTS
Format/Info                              : Digital Theater Systems
Codec ID                                : A_DTS
Duration                                : 2 h 50 min
Bit rate mode                            : Constant
Bit rate                                : 1 509 kb/s
Channel(s)                              : 6 channels
Channel layout                          : C L R Ls Rs LFE
Sampling rate                            : 48.0 kHz
Frame rate                              : 93.750 FPS (512 SPF)
Bit depth                                : 24 bits
Compression mode                        : Lossy
Stream size                              : 1.80 GiB (6%)
Language                                : English
Default                                  : Yes
Forced                                  : No

Text
ID                                      : 3
Format                                  : UTF-8
Codec ID                                : S_TEXT/UTF8
Codec ID/Info                            : UTF-8 Plain Text
Duration                                : 2 h 42 min
Bit rate                                : 52 b/s
Count of elements                        : 1752
Stream size                              : 63.1 KiB (0%)
Language                                : English
Default                                  : No
Forced                                  : No


Active participants can write to me in PM for a link to the film.
Reply
Thanks given by:
#75
(2021-06-27, 12:44 PM)maksnew Wrote: Abyss 1989 Special Edition Hybrid Open Matte 1080p WEBRip DTS 5.1 x264-random0

The Hybrid made with AutoOverlay AviSynth plugin.

Sources: WEB-DL Amazon OAR, 2 x HDTV Special Edition Open Matte

The scenes of the extended version are taken from HDTV and stylized as a theatrical version.

DTS sound taken from the Chinese DVD R6


[Image: ME1DQ5M_t.png][Image: ME1DQ5S_t.png]
[Image: ME1DQ5Q_t.png][Image: ME1DQ5O_t.png]
[Image: ME1DQ5T_t.png][Image: ME1DQ5P_t.png]
[Image: ME1DQ5R_t.png][Image: ME1DQ5N_t.png]

How does this differ from random.next's release?

(2021-05-09, 03:38 PM)random.next Wrote: The.Abyss.1989.Special.Edition.Open.Matte.1080p-BLUEBIRD
Previous release with extended scenes:
[Image: 032534Z.png] [Image: 049824Z.png] [Image: 110101Z.png] [Image: 221537Z.png] [Image: 226560Z.png]
Reply
Thanks given by:
#76
This is it.
Reply
Thanks given by: Hitcher , jouna
#77
(2021-06-27, 09:41 PM)maksnew Wrote: This is it.

Cheers.
Reply
Thanks given by:
#78
The "It says Virgil Brigman back on the air" scene on this is the Theatrical take and not the one from the SE (I compared to my US DVD). Was one of the sources taken from one of the other fanedits/restorations?
Reply
Thanks given by: SwatDB
#79
Finally, thank you!
Reply
Thanks given by:


Possibly Related Threads…
Thread Author Replies Views Last Post
  [Archived] Harry Potter and the Philosopher's Stone (open matte) [Fundamental Collection™ #013] spoRv 58 32,998 2021-06-19, 02:27 AM
Last Post: PDB
  [Canceled] Mission Impossible Ghost Protocol (IMAX Recreation) PDB 166 105,167 2021-04-04, 09:20 PM
Last Post: X5gb
  [Archived] Harry Potter and the Deathly Hallows Part 1(open matte) [Fundamental Collection™#019] spoRv 7 5,965 2021-02-04, 01:31 AM
Last Post: toigor
  [Canceled] Die Hard 2 35mm Regrade (The 35 Project) PDB 119 77,828 2021-01-26, 02:53 AM
Last Post: PDB
  [Canceled] Tremors Regrade (Project CRT #0 v1.0) PDB 50 6,861 2020-12-17, 10:14 PM
Last Post: BDgeek
  [On Hold] Skyfall Open Matte (aka Skyfall IMAX Version) PDB 62 14,697 2020-11-11, 04:19 AM
Last Post: BruceCrawford
  [Archived] Harry Potter and the Prisoner of Azkaban (open matte) [Fundamental Collection™ #015] spoRv 17 13,184 2020-09-18, 12:32 AM
Last Post: spoRv
  [Archived] Harry Potter and The Goblet of Fire (open matte) [Fundamental Collection™ #016] spoRv 3 4,093 2020-09-14, 12:01 AM
Last Post: Serenity91
  [On Hold] Mad Max 2/Road Warrior Regrade (Warner 97 DVD and LD) PDB 305 247,289 2020-07-03, 02:39 AM
Last Post: Inq81
  Snow White and the Seven Dwarfs Regrade FrankT 46 29,786 2020-06-25, 03:08 PM
Last Post: workprint-lover-and-wanter

Forum Jump:


Users browsing this thread: 1 Guest(s)