Thread Rating:
  • 0 Vote(s) - 0 Average
  • 1
  • 2
  • 3
  • 4
  • 5
[Proposal] Ferris Bueller's Day Off - Open Matte
#1
Looking for guidance on how I can make my own open matte from two different WEB sources to remove the logos.

Starz

[Image: EQ7845C.png]

StarzEncore

[Image: 7vRBXbw.png]

Starz media info

Code:
General
Unique ID                                : 173722834817061041910402200961753526961 (0x82B1CD0BB398FF0064B79B1ABFBBB2B1)
Complete name                            : V:\apps\downloads\Ferris Bueller's Day Off (1986)\Ferris Bueller's Day Off (1986) [Open Matte] Starz.mkv
Format                                   : Matroska
Format version                           : Version 4
File size                                : 7.53 GiB
Duration                                 : 1 h 43 min
Overall bit rate                         : 10.4 Mb/s
Encoded date                             : UTC 2019-03-10 11:24:16
Writing application                      : mkvmerge v30.1.0 ('Forever And More') 64-bit
Writing library                          : libebml v1.3.6 + libmatroska v1.4.9

Video
ID                                       : 1
Format                                   : AVC
Format/Info                              : Advanced Video Codec
Format profile                           : High@L4
Format settings                          : CABAC / 4 Ref Frames
Format settings, CABAC                   : Yes
Format settings, Reference frames        : 4 frames
Codec ID                                 : V_MPEG4/ISO/AVC
Duration                                 : 1 h 43 min
Bit rate mode                            : Constant
Bit rate                                 : 10 000 kb/s
Width                                    : 1 920 pixels
Height                                   : 1 080 pixels
Display aspect ratio                     : 16:9
Frame rate mode                          : Constant
Frame rate                               : 23.976 (24000/1001) FPS
Color space                              : YUV
Chroma subsampling                       : 4:2:0
Bit depth                                : 8 bits
Scan type                                : Progressive
Bits/(Pixel*Frame)                       : 0.201
Stream size                              : 7.06 GiB (94%)
Default                                  : Yes
Forced                                   : No
Color range                              : Limited
Color primaries                          : BT.709
Transfer characteristics                 : BT.709
Matrix coefficients                      : BT.709

Audio
ID                                       : 2
Format                                   : E-AC-3
Format/Info                              : Enhanced AC-3
Commercial name                          : Dolby Digital Plus
Codec ID                                 : A_EAC3
Duration                                 : 1 h 43 min
Bit rate mode                            : Constant
Bit rate                                 : 640 kb/s
Channel(s)                               : 6 channels
Channel layout                           : L R C LFE Ls Rs
Sampling rate                            : 48.0 kHz
Frame rate                               : 31.250 FPS (1536 SPF)
Compression mode                         : Lossy
Stream size                              : 472 MiB (6%)
Language                                 : English
Service kind                             : Complete Main
Default                                  : Yes
Forced                                   : No

Text
ID                                       : 3
Format                                   : UTF-8
Codec ID                                 : S_TEXT/UTF8
Codec ID/Info                            : UTF-8 Plain Text
Duration                                 : 1 h 42 min
Bit rate                                 : 63 b/s
Count of elements                        : 1729
Stream size                              : 47.3 KiB (0%)
Title                                    : SDH
Language                                 : English
Default                                  : No
Forced                                   : No

Menu
00:00:00.000                             : en:Studio Logo
00:00:14.000                             : en:Ferris' Parents Find Him Sick
00:03:14.000                             : en:Ferris Talks about His Philosophy
00:05:47.000                             : en:The Teacher Calls Roll
00:06:35.000                             : en:Ferris Calls Cameron
00:08:14.000                             : en:Mrs. Bueller Gets a Call from Rooney
00:10:43.000                             : en:The Teacher Gives a Lecture
00:11:57.000                             : en:Ferris Dances in His Room
00:12:08.000                             : en:Ferris Talks with Classmates
00:13:58.000                             : en:They Think He's a Righteous Dude
00:15:17.000                             : en:Ferris Gets a Call from his Dad
00:16:44.000                             : en:Cameron Considers His Options
00:17:41.000                             : en:Sloane Receives Bad News
00:19:00.000                             : en:Rooney Gets a Call From Mr. Peterson
00:25:54.000                             : en:Ferris Tries to Borrow a Car
00:28:32.000                             : en:Sloane is Picked Up
00:31:28.000                             : en:The Group Drives to the City
00:32:27.000                             : en:Donations are Collected to Help Ferris
00:32:55.000                             : en:Rooney Contacts Mr. Peterson Again
00:34:13.000                             : en:The Ferarri is Dropped Off
00:36:46.000                             : en:Mrs. Bueller Checks in On Ferris
00:38:29.000                             : en:The Group Visits the Sears Tower
00:39:22.000                             : en:Cameron Gives His Opinion on Marriage
00:40:28.000                             : en:The Group Has Lunch
00:44:17.000                             : en:Jeanie Thinks about Ferris
00:44:42.000                             : en:Ferris Discusses Cameron's Family
00:46:02.000                             : en:Jeanie Visits the Main Office
00:46:39.000                             : en:The Group Avoids Being Caught
00:47:33.000                             : en:Rooney Searches for Ferris
00:49:55.000                             : en:The Group Goes to a Baseball Game
00:50:54.000                             : en:Rooney Visits Ferris
00:56:06.000                             : en:The Group Visits an Art Museum
00:58:00.000                             : en:The Group Avoids Getting Caught Again
01:00:10.000                             : en:Rooney Attempts to Escape
01:00:28.000                             : en:Ferris Surprises Sloane and Cameron
01:05:36.000                             : en:Jeanie Investigates Where Ferris Is
01:08:33.000                             : en:The Group Picks the Car Up
01:09:43.000                             : en:Jeanie Calls for Help
01:11:19.000                             : en:Cameron Reacts to the Situation
01:12:30.000                             : en:Jeanie Gets a Visitor
01:13:04.000                             : en:Ferris and Sloane Talk about Cameron
01:14:47.000                             : en:Cameron Plays a Prank on Ferris
01:16:50.000                             : en:Jeanie Meets Someone
01:19:44.000                             : en:Cameron Has a Breakthrough
01:27:37.000                             : en:Mrs. Bueller Picks up Jeanie
01:29:24.000                             : en:Ferris Races Home
01:36:27.000                             : en:Ferris' Parents Check on Ferris
01:38:59.000                             : en:Rooney Gets a Ride, End Credits

StarzEncore media info

Code:
General
Complete name                            : V:\apps\downloads\Ferris Bueller's Day Off (1986)\Ferris Bueller's Day Off (1986) [Open Matte] StarzEncore.mp4
Format                                   : MPEG-4
Format profile                           : Base Media / Version 2
Codec ID                                 : mp42 (isom/mp42)
File size                                : 16.1 GiB
Duration                                 : 1 h 42 min
Overall bit rate mode                    : Variable
Overall bit rate                         : 22.4 Mb/s
Encoded date                             : UTC 2018-08-16 15:13:07
Tagged date                              : UTC 2018-08-16 15:13:07

Video
ID                                       : 2
Format                                   : AVC
Format/Info                              : Advanced Video Codec
Format profile                           : Main@L4.1
Format settings                          : CABAC / 3 Ref Frames
Format settings, CABAC                   : Yes
Format settings, Reference frames        : 3 frames
Codec ID                                 : avc1
Codec ID/Info                            : Advanced Video Coding
Duration                                 : 1 h 42 min
Source duration                          : 1 h 42 min
Bit rate mode                            : Variable
Bit rate                                 : 22.2 Mb/s
Maximum bit rate                         : 24.0 Mb/s
Width                                    : 1 920 pixels
Height                                   : 1 080 pixels
Display aspect ratio                     : 16:9
Frame rate mode                          : Constant
Frame rate                               : 29.970 (30000/1001) FPS
Standard                                 : NTSC
Color space                              : YUV
Chroma subsampling                       : 4:2:0
Bit depth                                : 8 bits
Scan type                                : Progressive
Bits/(Pixel*Frame)                       : 0.357
Stream size                              : 16.0 GiB (99%)
Source stream size                       : 16.0 GiB (99%)
Language                                 : English
Encoded date                             : UTC 2018-08-16 15:13:08
Tagged date                              : UTC 2018-08-16 15:13:08
Color range                              : Limited
Codec configuration box                  : avcC

Audio
ID                                       : 1
Format                                   : AAC LC
Format/Info                              : Advanced Audio Codec Low Complexity
Codec ID                                 : mp4a-40-2
Duration                                 : 1 h 42 min
Bit rate mode                            : Variable
Bit rate                                 : 192 kb/s
Maximum bit rate                         : 504 kb/s
Channel(s)                               : 2 channels
Channel layout                           : L R
Sampling rate                            : 48.0 kHz
Frame rate                               : 46.875 FPS (1024 SPF)
Compression mode                         : Lossy
Stream size                              : 139 MiB (1%)
Language                                 : English
Encoded date                             : UTC 2018-08-16 15:13:08
Tagged date                              : UTC 2018-08-16 15:13:08

So firstly I guess I need to re-encode one source to match the others format and fps.
Then I'll need to mask one video over the other to remove most of the logo.
Then finally, as there will still be a bit of the StarzEncore logo showing, I'll need to remove it somehow.

This is where I need your expert help on what programs to use and how best to use them.

Thanks.
Reply
Thanks given by:
#2
I'm waiting one of local channels to show it again which always show it open matte with only a logo at top left, but typically they haven't shown it since the STARZ was available.

Also it censors a couple of bits so hoping they are not during when STARZ has it's intermittant logo.

Once this gets shown I will do my own logo free version.

All US versions I've seen including Freeform have a logo in the same place.
Reply
Thanks given by:


Possibly Related Threads…
Thread Author Replies Views Last Post
  [Request] Eraserhead (1977) - Open Matte Preservation. simpjake1999 10 488 2020-11-23, 05:56 PM
Last Post: simpjake1999
  [Help] Taking a crack at my first open matte. Is there a better way? (example attached) CORTICALSYSTEMS 8 274 2020-10-08, 08:10 PM
Last Post: CORTICALSYSTEMS
  Avengers Infinity War Open Matte Eng localized OsidianDawn 2 774 2020-09-17, 08:23 AM
Last Post: Beber
  Narnia: The Lion, the Witch and the Wardrobe - Open Matte Recording 44rh1n 4 1,366 2020-08-10, 07:56 AM
Last Post: Taitus Loki
  [Request] Need for Speed 2014 Open Matte Hybrid 1080p Dschafar 0 261 2020-07-18, 10:20 PM
Last Post: Dschafar
  [Request] Casino (1995) Open Matte random.next 36 13,791 2020-01-03, 09:21 AM
Last Post: maksnew
  The Corruptor 1999 WEB DL 1080p Open Matte maksnew 0 541 2019-10-31, 06:24 PM
Last Post: maksnew
  [Request] The Revenant - Open Matte Hitcher 4 1,701 2019-10-29, 05:03 PM
Last Post: TomArrow
  [Proposal] Sully - Open Matte Release Bigrob 2 1,014 2019-07-22, 05:45 PM
Last Post: maksnew
Exclamation open matte & full screen main thread spoRv 95 51,123 2019-05-05, 06:14 AM
Last Post: SilverWook

Forum Jump:


Users browsing this thread: 1 Guest(s)