Thread Rating:
  • 0 Vote(s) - 0 Average
  • 1
  • 2
  • 3
  • 4
  • 5
[In progress] CSchmidlapp's 'Past Masters' Collection
#1
The Past Masters Collection.

A selection of films from my collection that needed a little bit of love and preservation.
The Best Picture - Color Corrected, cleaned up to my personal taste.
The Best Audio - A selection of the best Audio option's I and the wider web have to offer.

The Story so far...
Ive been using avisynth scripts to play files for the past few years now, mainly for DVDs.
I speed change, clean, up-ress and tweak depending on the source and it all plays real-time on my rig.
i7 3770k, 32gb ram, AMDRX480

Ive also found this process helpful for correcting old HD masters on Blu-ray.
Slightly tweaking the YUV channels to remove the 'Red' byass that plagued dated masters and often doing a upscale to 4k and back down to pull out as much detail as possible.
As many of you know here this kind of tweaking can be addictive, and I'd often hit the limits of my real-time playback.

Overtime I started to push things more and would try an mimic what a said film could of looked like when printed on particular film stock.
Dropping the upscale (unless necessary)
often this would contain two levels of color tweaking, one to balance the picture, then one to add the 35mm release print character.
This included a film-like gamma curve.
After much research and discussion in this very forum, it does indeed look like a lot of the more teal releases are in fact more theatrically accurate.
Removing the red byass and getting more pleasurable skintones certainly introduced more green and blues.

I recently found my entire DVD collection had become victim to recent flooding during a very wet period in my country.
So Ive been salvaging what I can and thought it an excellent time to combine all the various versions of films I have collected over the years.
Id always wanted to do it, and have in the past done a few from my 'Hong Kong collection'
They are a lot more varied release to release and can get quite grueling when combining all the best sources.
This is where the Past Masters project was born.
The Best Video, Audio options I have tweaked to my liking.
I understand it's probably not for everyone and not as 'pure' as most would like.
Those options will always be available for more simple remux projects but I wanted to do a little more.

I originally I intended to do these corrections and 'Quick' projects completely in AVIsynth, just rendering the 'real-time' scripts using the methods above.
But as is with anything like this, I found myself trying various different methods and introduced Adobe Premiere CC back into the mix for Color Correction.
And im very glad I did.
Mainly because of my lack of skill with Avisynth, I just could not balance the white points properly when correcting.
Lumetri in Premiere CC changed all that and Ive been very happy with the results.
Reply
#2
Saved
Reply
Thanks given by:
#3
Looks great, commodore. I’m excited to see the end results.
New, low or non-posting members: Please do not post or PM me asking where to get something or what the current status of a project is. Such requests are ignored. Instead, stick around and become a participating member. Thank you.

Reply
Thanks given by: CSchmidlapp
#4
1# Face / Off

Available Now, PM for details.
Forum rules apply.

MKV release.

Video
1080p - H264 (BD complaint) - 23.976

Audio
DTS-MA 5.1 - Buena Vista BD PCM Mix
DTS ES 6.1 - Paramount BD 6.1 Mix
FLAC 2.0 - Laserdisc 2.0 Surround Mix
DD 2.0 - Audio Commentary by Director John Woo and Writers Mike Werb and Michael Colleary
DD 2.0 - Audio Commentary by Writers Mike Werb and Michael Colleary

Subs
English

Chapter Points
40

Thanks to Zoidberg for supplying me with the Laserdisc audio track.
Thanks to PDB for helping with and previewing my WIP.


[Image: Face-Off-1997-AVC-DTSHD-Past-Masters-01-...thumbs.jpg]

Code:
General
Unique ID                      : 335356000820444115752551585152853296360 (0xFC4B37660E649D7BA4B74E773ED344E8)
Complete name                  : E:\Video\FanRess\Past Masters\Face.Off-(1997)-AVC-DTS-HD-Past.Masters.#01.V1.7.mkv
Format                        : Matroska
Format version                : Version 4
File size                      : 29.0 GiB
Duration                      : 2 h 19 min
Overall bit rate mode          : Variable
Overall bit rate              : 29.8 Mb/s
Encoded date                  : UTC 2020-07-26 15:39:01
Writing application            : mkvmerge v48.0.0 ('Fortress Around Your Heart') 64-bit
Writing library                : libebml v1.4.0 + libmatroska v1.6.0

Video
ID                            : 1
Format                        : AVC
Format/Info                    : Advanced Video Codec
Format profile                : High@L4.1
Format settings                : CABAC / 4 Ref Frames
Format settings, CABAC        : Yes
Format settings, Reference fra : 4 frames
Codec ID                      : V_MPEG4/ISO/AVC
Duration                      : 2 h 19 min
Bit rate mode                  : Variable
Bit rate                      : 25.0 Mb/s
Maximum bit rate              : 35.0 Mb/s
Width                          : 1 920 pixels
Height                        : 1 080 pixels
Display aspect ratio          : 16:9
Frame rate mode                : Constant
Frame rate                    : 23.976 (24000/1001) FPS
Color space                    : YUV
Chroma subsampling            : 4:2:0
Bit depth                      : 8 bits
Scan type                      : Progressive
Bits/(Pixel*Frame)            : 0.503
Stream size                    : 24.2 GiB (84%)
Title                          : Face / Off - Past Masters #01
Writing library                : x264 core 160 r3000 33f9e14
Encoding settings              : cabac=1 / ref=4 / deblock=1:-1:-1 / analyse=0x3:0x113 / me=hex / subme=8 / psy=1 / psy_rd=1.00:0.15 / mixed_ref=1 / me_range=16 / chroma_me=1 / trellis=2 / 8x8dct=1 / cqm=0 / deadzone=21,11 / fast_pskip=1 / chroma_qp_offset=-3 / threads=12 / lookahead_threads=2 / sliced_threads=0 / slices=4 / nr=0 / decimate=1 / interlaced=0 / bluray_compat=1 / constrained_intra=0 / bframes=3 / b_pyramid=0 / b_adapt=1 / b_bias=0 / direct=3 / weightb=1 / open_gop=0 / weightp=0 / keyint=24 / keyint_min=1 / scenecut=40 / intra_refresh=0 / rc_lookahead=24 / rc=2pass / mbtree=1 / bitrate=25000 / ratetol=1.0 / qcomp=0.60 / qpmin=0 / qpmax=69 / qpstep=4 / cplxblur=20.0 / qblur=0.5 / vbv_maxrate=35000 / vbv_bufsize=30000 / nal_hrd=vbr / filler=0 / ip_ratio=1.40 / aq=1:1.00
Language                      : English
Default                        : Yes
Forced                        : No
Color range                    : Limited
Color primaries                : BT.709
Transfer characteristics      : BT.709
Matrix coefficients            : BT.709

Audio #1
ID                            : 2
Format                        : DTS XLL
Format/Info                    : Digital Theater Systems
Commercial name                : DTS-HD Master Audio
Codec ID                      : A_DTS
Duration                      : 2 h 19 min
Bit rate mode                  : Variable
Bit rate                      : 2 333 kb/s
Channel(s)                    : 6 channels
Channel layout                : C L R Ls Rs LFE
Sampling rate                  : 48.0 kHz
Frame rate                    : 93.750 FPS (512 SPF)
Bit depth                      : 16 bits
Compression mode              : Lossless
Stream size                    : 2.27 GiB (8%)
Title                          : Buena Vista BD 5.1 Mix
Language                      : English
Default                        : Yes
Forced                        : No

Audio #2
ID                            : 3
Format                        : DTS ES XXCH
Format/Info                    : Digital Theater Systems
Commercial name                : DTS-ES Discrete
Codec ID                      : A_DTS
Duration                      : 2 h 18 min
Bit rate mode                  : Constant
Bit rate                      : 1 509 kb/s
Channel(s)                    : 7 channels
Channel layout                : C L R Ls Rs Cb LFE
Sampling rate                  : 48.0 kHz
Frame rate                    : 93.750 FPS (512 SPF)
Bit depth                      : 24 bits
Compression mode              : Lossy
Stream size                    : 1.46 GiB (5%)
Title                          : Paramount BD 6.1 Mix
Language                      : English
Default                        : No
Forced                        : No

Audio #3
ID                            : 4
Format                        : FLAC
Format/Info                    : Free Lossless Audio Codec
Codec ID                      : A_FLAC
Duration                      : 2 h 19 min
Bit rate mode                  : Variable
Bit rate                      : 626 kb/s
Channel(s)                    : 2 channels
Channel layout                : L R
Sampling rate                  : 44.1 kHz
Frame rate                    : 10.767 FPS (4096 SPF)
Bit depth                      : 16 bits
Compression mode              : Lossless
Stream size                    : 622 MiB (2%)
Title                          : Laserdisc 2.0 Surround Mix
Writing library                : libFLAC 1.2.1 (UTC 2007-09-17)
Language                      : English
Default                        : No
Forced                        : No

Audio #4
ID                            : 5
Format                        : AC-3
Format/Info                    : Audio Coding 3
Commercial name                : Dolby Digital
Codec ID                      : A_AC3
Duration                      : 2 h 18 min
Bit rate mode                  : Constant
Bit rate                      : 192 kb/s
Channel(s)                    : 2 channels
Channel layout                : L R
Sampling rate                  : 48.0 kHz
Frame rate                    : 31.250 FPS (1536 SPF)
Compression mode              : Lossy
Stream size                    : 191 MiB (1%)
Title                          : Audio Commentary by Director John Woo and Writers Mike Werb and Michael Colleary
Language                      : English
Service kind                  : Complete Main
Default                        : No
Forced                        : No

Audio #5
ID                            : 6
Format                        : AC-3
Format/Info                    : Audio Coding 3
Commercial name                : Dolby Digital
Codec ID                      : A_AC3
Duration                      : 2 h 18 min
Bit rate mode                  : Constant
Bit rate                      : 192 kb/s
Channel(s)                    : 2 channels
Channel layout                : L R
Sampling rate                  : 48.0 kHz
Frame rate                    : 31.250 FPS (1536 SPF)
Compression mode              : Lossy
Stream size                    : 191 MiB (1%)
Title                          : Audio Commentary by Writers Mike Werb and Michael Colleary
Language                      : English
Service kind                  : Complete Main
Default                        : No
Forced                        : No

Text #1
ID                            : 7
Format                        : PGS
Muxing mode                    : zlib
Codec ID                      : S_HDMV/PGS
Codec ID/Info                  : Picture based subtitle format used on BDs/HD-DVDs
Duration                      : 2 h 10 min
Bit rate                      : 23.1 kb/s
Count of elements              : 2312
Stream size                    : 21.6 MiB (0%)
Language                      : English
Default                        : No
Forced                        : No

Text #2
ID                            : 8
Format                        : PGS
Muxing mode                    : zlib
Codec ID                      : S_HDMV/PGS
Codec ID/Info                  : Picture based subtitle format used on BDs/HD-DVDs
Duration                      : 2 h 13 min
Bit rate                      : 25.4 kb/s
Count of elements              : 2726
Stream size                    : 24.4 MiB (0%)
Language                      : English
Default                        : No
Forced                        : No

Menu
00:00:00.000                  : en:Chapter 01
00:03:02.724                  : en:Chapter 02
00:06:33.226                  : en:Chapter 03
00:09:36.659                  : en:Chapter 04
00:13:28.849                  : en:Chapter 05
00:18:18.680                  : en:Chapter 06
00:20:09.958                  : en:Chapter 07
00:23:49.886                  : en:Chapter 08
00:26:33.508                  : en:Chapter 09
00:28:21.866                  : en:Chapter 10
00:32:32.909                  : en:Chapter 11
00:33:41.978                  : en:Chapter 12
00:38:56.083                  : en:Chapter 13
00:45:31.729                  : en:Chapter 14
00:48:28.655                  : en:Chapter 15
00:51:04.311                  : en:Chapter 16
00:54:20.548                  : en:Chapter 17
00:58:17.952                  : en:Chapter 18
01:00:04.225                  : en:Chapter 19
01:01:04.535                  : en:Chapter 20
01:04:28.489                  : en:Chapter 21
01:06:41.247                  : en:Chapter 22
01:08:13.464                  : en:Chapter 23
01:14:11.113                  : en:Chapter 24
01:15:37.366                  : en:Chapter 25
01:24:20.638                  : en:Chapter 26
01:27:04.219                  : en:Chapter 27
01:31:28.649                  : en:Chapter 28
01:37:08.113                  : en:Chapter 29
01:40:46.457                  : en:Chapter 30
01:42:28.892                  : en:Chapter 31
01:47:13.885                  : en:Chapter 32
01:50:51.936                  : en:Chapter 33
01:52:28.783                  : en:Chapter 34
01:56:12.674                  : en:Chapter 35
02:01:10.554                  : en:Chapter 36
02:03:04.293                  : en:Chapter 37
02:10:15.265                  : en:Chapter 38
02:12:09.212                  : en:Chapter 39
02:14:17.466                  : en:Chapter 40
Reply
#5
2# Broken Arrow

Available Now, PM for details.
Forum rules apply.

MKV release.

Video

1080p - H264 (BD complaint) - 23.976

Audio

5.1 DTS-HD 48kHz - U.K Bluray Mix
5.1 DTS 44kHz - Laserdisc Mix - Bitperfect - Thanks Zoidberg
2.0 Flac 44kHz - Laserdisc Surround Mix - Thanks Zoidberg

Subs
English

Chapter Points

22

Thanks to Zoidberg for syncing and supplying me with the Laserdisc audio tracks.
Thanks to PDB for helping with and previewing my WIP.


[Image: Broken-Arrow-1996-AVC-DTS-HD-Past-Master...thumbs.jpg]

Code:
General
Unique ID                      : 251142673803748201407158440297333902692 (0xBCF051CFF175A77258DABB03B84DCD64)
Complete name                  : Broken.Arrow.(1996)-AVC-DTS-HD-Past.Masters.#02.V1.3.mkv
Format                        : Matroska
Format version                : Version 4
File size                      : 23.7 GiB
Duration                      : 1 h 48 min
Overall bit rate mode          : Variable
Overall bit rate              : 31.3 Mb/s
Encoded date                  : UTC 2020-07-25 09:12:47
Writing application            : mkvmerge v48.0.0 ('Fortress Around Your Heart') 64-bit
Writing library                : libebml v1.4.0 + libmatroska v1.6.0

Video
ID                            : 1
Format                        : AVC
Format/Info                    : Advanced Video Codec
Format profile                : High@L4.1
Format settings                : CABAC / 4 Ref Frames
Format settings, CABAC        : Yes
Format settings, Reference fra : 4 frames
Codec ID                      : V_MPEG4/ISO/AVC
Duration                      : 1 h 48 min
Bit rate mode                  : Variable
Bit rate                      : 25.0 Mb/s
Maximum bit rate              : 35.0 Mb/s
Width                          : 1 920 pixels
Height                        : 1 080 pixels
Display aspect ratio          : 16:9
Frame rate mode                : Constant
Frame rate                    : 23.976 (24000/1001) FPS
Color space                    : YUV
Chroma subsampling            : 4:2:0
Bit depth                      : 8 bits
Scan type                      : Progressive
Bits/(Pixel*Frame)            : 0.503
Stream size                    : 18.9 GiB (80%)
Title                          : Broken Arrow (1996) - Past Masters #02
Writing library                : x264 core 160 r3000 33f9e14
Encoding settings              : cabac=1 / ref=4 / deblock=1:-1:-1 / analyse=0x3:0x113 / me=hex / subme=8 / psy=1 / psy_rd=1.00:0.15 / mixed_ref=1 / me_range=16 / chroma_me=1 / trellis=2 / 8x8dct=1 / cqm=0 / deadzone=21,11 / fast_pskip=1 / chroma_qp_offset=-3 / threads=12 / lookahead_threads=2 / sliced_threads=0 / slices=4 / nr=0 / decimate=1 / interlaced=0 / bluray_compat=1 / constrained_intra=0 / bframes=3 / b_pyramid=0 / b_adapt=1 / b_bias=0 / direct=3 / weightb=1 / open_gop=0 / weightp=0 / keyint=24 / keyint_min=1 / scenecut=40 / intra_refresh=0 / rc_lookahead=24 / rc=2pass / mbtree=1 / bitrate=25000 / ratetol=1.0 / qcomp=0.60 / qpmin=0 / qpmax=69 / qpstep=4 / cplxblur=20.0 / qblur=0.5 / vbv_maxrate=35000 / vbv_bufsize=30000 / nal_hrd=vbr / filler=0 / ip_ratio=1.40 / aq=1:1.00
Language                      : English
Default                        : Yes
Forced                        : No
Color range                    : Limited
Color primaries                : BT.709
Transfer characteristics      : BT.709
Matrix coefficients            : BT.709

Audio #1
ID                            : 2
Format                        : DTS XLL
Format/Info                    : Digital Theater Systems
Commercial name                : DTS-HD Master Audio
Codec ID                      : A_DTS
Duration                      : 1 h 48 min
Bit rate mode                  : Variable
Bit rate                      : 4 424 kb/s
Channel(s)                    : 6 channels
Channel layout                : C L R Ls Rs LFE
Sampling rate                  : 48.0 kHz
Frame rate                    : 93.750 FPS (512 SPF)
Bit depth                      : 24 bits
Compression mode              : Lossless
Stream size                    : 3.35 GiB (14%)
Title                          : Bluray 5.1 mix
Language                      : English
Default                        : No
Forced                        : No

Audio #2
ID                            : 3
Format                        : DTS
Format/Info                    : Digital Theater Systems
Codec ID                      : A_DTS
Duration                      : 1 h 48 min
Bit rate mode                  : Constant
Bit rate                      : 1 235 kb/s
Channel(s)                    : 6 channels
Channel layout                : C L R Ls Rs LFE
Sampling rate                  : 44.1 kHz
Frame rate                    : 43.066 FPS (1024 SPF)
Bit depth                      : 20 bits
Compression mode              : Lossy
Stream size                    : 957 MiB (4%)
Title                          : Laserdisc (Bit-Perfect) DTS 5.1 Mix
Language                      : English
Default                        : Yes
Forced                        : No

Audio #3
ID                            : 4
Format                        : FLAC
Format/Info                    : Free Lossless Audio Codec
Codec ID                      : A_FLAC
Duration                      : 1 h 48 min
Bit rate mode                  : Variable
Bit rate                      : 646 kb/s
Channel(s)                    : 2 channels
Sampling rate                  : 44.1 kHz
Frame rate                    : 10.767 FPS (4096 SPF)
Bit depth                      : 16 bits
Compression mode              : Lossless
Stream size                    : 501 MiB (2%)
Title                          : Laserdisc 2.0 Surround Mix
Writing library                : libFLAC 1.2.1 (UTC 2007-09-17)
Language                      : English
Default                        : No
Forced                        : No

Text
ID                            : 5
Format                        : PGS
Muxing mode                    : zlib
Codec ID                      : S_HDMV/PGS
Codec ID/Info                  : Picture based subtitle format used on BDs/HD-DVDs
Duration                      : 1 h 40 min
Bit rate                      : 23.9 kb/s
Count of elements              : 1923
Stream size                    : 17.2 MiB (0%)
Language                      : English
Default                        : No
Forced                        : No

Menu
00:00:00.000                  : en:Chapter 01
00:05:28.286                  : en:Chapter 02
00:13:03.157                  : en:Chapter 03
00:17:41.977                  : en:Chapter 04
00:20:00.908                  : en:Chapter 05
00:22:59.336                  : en:Chapter 06
00:26:38.930                  : en:Chapter 07
00:33:55.241                  : en:Chapter 08
00:42:54.655                  : en:Chapter 09
00:50:53.008                  : en:Chapter 10
00:53:59.402                  : en:Chapter 11
01:04:42.712                  : en:Chapter 12
01:08:48.165                  : en:Chapter 13
01:11:17.147                  : en:Chapter 14
01:14:29.882                  : en:Chapter 15
01:18:00.509                  : en:Chapter 16
01:20:56.184                  : en:Chapter 17
01:26:34.189                  : en:Chapter 18
01:28:49.532                  : en:Chapter 19
01:30:31.175                  : en:Chapter 20
01:33:05.580                  : en:Chapter 21
01:42:13.418                  : en:Chapter 22
Reply
#6
3# Timecop

Available Now, PM for details.
Forum rules apply.

MKV release.

Video

1080p - H264 (BD complaint) - 23.976

Audio

DTS-HD MA 5.1 - Warner Bluray Mix
FLAC 5.1 - Cinema DTS 44kHz - - Thanks Soundman
FLAC 2.0 - Laserdisc Surround Mix - Thanks Soundman

Subs
English

Chapter Points

20

Thanks to Soundman for supplying me with the Cinema DTS and Laserdisc audio tracks.
Thanks to PDB for helping with and previewing my WIP.



[Image: Timecop-1994-AVC-DTS-HD-Past-Masters-03-...thumbs.jpg]

Code:
General
Unique ID                      : 98413477004759849758883909499124744690 (0x4A09BF08E50E8E48F1A03261C6A481F2)
Complete name                  : Timecop.(1994)-AVC-DTS-HD-Past.Masters.#03.V1.4.mkv
Format                        : Matroska
Format version                : Version 4
File size                      : 21.6 GiB
Duration                      : 1 h 38 min
Overall bit rate mode          : Variable
Overall bit rate              : 31.5 Mb/s
Encoded date                  : UTC 2020-07-27 18:53:43
Writing application            : mkvmerge v48.0.0 ('Fortress Around Your Heart') 64-bit
Writing library                : libebml v1.4.0 + libmatroska v1.6.0

Video
ID                            : 1
Format                        : AVC
Format/Info                    : Advanced Video Codec
Format profile                : High@L4.1
Format settings                : CABAC / 4 Ref Frames
Format settings, CABAC        : Yes
Format settings, Reference fra : 4 frames
Codec ID                      : V_MPEG4/ISO/AVC
Duration                      : 1 h 38 min
Bit rate mode                  : Variable
Bit rate                      : 25.0 Mb/s
Maximum bit rate              : 35.0 Mb/s
Width                          : 1 920 pixels
Height                        : 1 080 pixels
Display aspect ratio          : 16:9
Frame rate mode                : Constant
Frame rate                    : 23.976 (24000/1001) FPS
Color space                    : YUV
Chroma subsampling            : 4:2:0
Bit depth                      : 8 bits
Scan type                      : Progressive
Bits/(Pixel*Frame)            : 0.503
Stream size                    : 17.0 GiB (79%)
Title                          : Timecop (1994) - Past Masters #03
Writing library                : x264 core 160 r3000 33f9e14
Encoding settings              : cabac=1 / ref=4 / deblock=1:-1:-1 / analyse=0x3:0x113 / me=hex / subme=8 / psy=1 / psy_rd=1.00:0.15 / mixed_ref=1 / me_range=16 / chroma_me=1 / trellis=2 / 8x8dct=1 / cqm=0 / deadzone=21,11 / fast_pskip=1 / chroma_qp_offset=-3 / threads=12 / lookahead_threads=2 / sliced_threads=0 / slices=4 / nr=0 / decimate=1 / interlaced=0 / bluray_compat=1 / constrained_intra=0 / bframes=3 / b_pyramid=0 / b_adapt=1 / b_bias=0 / direct=3 / weightb=1 / open_gop=0 / weightp=0 / keyint=24 / keyint_min=1 / scenecut=40 / intra_refresh=0 / rc_lookahead=24 / rc=2pass / mbtree=1 / bitrate=25000 / ratetol=1.0 / qcomp=0.60 / qpmin=0 / qpmax=69 / qpstep=4 / cplxblur=20.0 / qblur=0.5 / vbv_maxrate=35000 / vbv_bufsize=30000 / nal_hrd=vbr / filler=0 / ip_ratio=1.40 / aq=1:1.00
Language                      : English
Default                        : Yes
Forced                        : No
Color range                    : Limited
Color primaries                : BT.709
Transfer characteristics      : BT.709
Matrix coefficients            : BT.709

Audio #1
ID                            : 2
Format                        : DTS XLL
Format/Info                    : Digital Theater Systems
Commercial name                : DTS-HD Master Audio
Codec ID                      : A_DTS
Duration                      : 1 h 38 min
Bit rate mode                  : Variable
Bit rate                      : 4 565 kb/s
Channel(s)                    : 6 channels
Channel layout                : C L R Ls Rs LFE
Sampling rate                  : 48.0 kHz
Frame rate                    : 93.750 FPS (512 SPF)
Bit depth                      : 24 bits
Compression mode              : Lossless
Stream size                    : 3.13 GiB (14%)
Title                          : Warner Blu-Ray Mix
Language                      : English
Default                        : Yes
Forced                        : No

Audio #2
ID                            : 3
Format                        : FLAC
Format/Info                    : Free Lossless Audio Codec
Codec ID                      : A_FLAC
Duration                      : 1 h 38 min
Bit rate mode                  : Variable
Bit rate                      : 1 411 kb/s
Channel(s)                    : 6 channels
Channel layout                : L R C LFE Ls Rs
Sampling rate                  : 44.1 kHz
Frame rate                    : 10.767 FPS (4096 SPF)
Bit depth                      : 16 bits
Compression mode              : Lossless
Stream size                    : 989 MiB (4%)
Title                          : Cinema DTS Disc
Writing library                : libFLAC 1.2.1 (UTC 2007-09-17)
Language                      : English
Default                        : No
Forced                        : No

Audio #3
ID                            : 4
Format                        : FLAC
Format/Info                    : Free Lossless Audio Codec
Codec ID                      : A_FLAC
Duration                      : 1 h 38 min
Bit rate mode                  : Variable
Bit rate                      : 635 kb/s
Channel(s)                    : 2 channels
Sampling rate                  : 44.1 kHz
Frame rate                    : 10.767 FPS (4096 SPF)
Bit depth                      : 16 bits
Compression mode              : Lossless
Stream size                    : 446 MiB (2%)
Title                          : Laserdisc Surround Mix
Writing library                : libFLAC 1.2.1 (UTC 2007-09-17)
Language                      : English
Default                        : No
Forced                        : No

Text
ID                            : 5
Format                        : PGS
Muxing mode                    : zlib
Codec ID                      : S_HDMV/PGS
Codec ID/Info                  : Picture based subtitle format used on BDs/HD-DVDs
Duration                      : 1 h 35 min
Bit rate                      : 33.0 kb/s
Count of elements              : 1888
Stream size                    : 22.5 MiB (0%)
Language                      : English
Default                        : No
Forced                        : No

Menu
00:02:40.118                  : 00:02:40.118
00:04:21.844                  : 00:04:21.844
00:08:03.399                  : 00:08:03.399
00:11:47.832                  : 00:11:47.832
00:15:51.909                  : 00:15:51.909
00:24:20.208                  : 00:24:20.208
00:28:43.179                  : 00:28:43.179
00:34:28.316                  : 00:34:28.316
00:37:59.402                  : 00:37:59.402
00:43:50.586                  : 00:43:50.586
00:49:11.740                  : 00:49:11.740
00:57:48.506                  : 00:57:48.506
01:03:20.922                  : 01:03:20.922
01:08:41.617                  : 01:08:41.617
01:14:06.733                  : 01:14:06.733
01:17:47.245                  : 01:17:47.245
01:21:33.513                  : 01:21:33.513
01:24:37.530                  : 01:24:37.530
01:29:57.266                  : 01:29:57.266
01:33:58.883                  : 01:33:58.883
Reply
Thanks given by: The Aluminum Falcon , BDgeek
#7
Congratulations CSchmidlapp!!!

Awesome, great looking projects!!!

I really appreciated the movie selection as well.

For Face/Off, all the four 5.1 tracks presented on the BDs are different from each other (Paramount's US BD DD 5.1-EX & DTS 5.1-ES and the Buena Vista's INT BD PCM 5.1 & DD 5.1 640kbps), so I believe it would be good to have them all included if you can.

I can also supply Face/Off's US LD PCM and AC-3 tracks. I just ask for a few days as it's in alinskey hands for capture.

It would a be most complete set, if you could include them all.
Reply
Thanks given by:
#8
(2020-09-07, 04:12 PM)BDgeek Wrote: Congratulations CSchmidlapp!!!

Awesome, great looking projects!!!

I really appreciated the movie selection as well.

For Face/Off, all the four 5.1 tracks presented on the BDs are different from each other (Paramount's US BD DD 5.1-EX & DTS 5.1-ES and the Buena Vista's INT BD PCM 5.1 & DD 5.1 640kbps), so I believe it would be good to have them all included if you can.

I can also supply Face/Off's US LD PCM and AC-3 tracks. I just ask for a few days as it's in alinskey hands for capture.

It would a be most complete set, if you could include them all.

Hi BD Geek.

Face / Off includes the Paramount DTS ES 6.1, the Buena Vista 5.1 PCM (encoded to DTS-HD MA) and the Laserdisc 2.0 mix in flac format.
I've also included the commentary tracks.
Its in sync with the US Blu so you could add the additional tracks if you wish.
I'm currently waiting to see if a DTS Cinema Disc pays off, but that has gone silent.

Thanks for your interest in my project good sir Smile
Reply
Thanks given by: BDgeek


Possibly Related Threads…
Thread Author Replies Views Last Post
  The Blade Runner Regrade Collection (Restored DC and IC Regrade v2.0) PDB 208 102,992 2020-07-01, 03:04 PM
Last Post: PDB
  [In progress] Van Helsing (2004) [Fundamental Collection] spoRv 10 2,183 2019-11-28, 11:17 AM
Last Post: JackReacher
  [In progress] Alien saga [Fundamental Collection] spoRv 44 20,393 2019-03-20, 10:00 AM
Last Post: Stamper
  [In progress] The Fundamental Collection - Complete Compendium AsciugaMan 18 6,431 2018-09-08, 05:02 PM
Last Post: applesandrice
  NSP Presents "The BetterBlu Collection" FanREMUX nightstalkerpoet 10 5,553 2017-06-13, 01:25 AM
Last Post: nightstalkerpoet
  Shadoe Presents: The Vintage Disney Channel Throwback Collection jerryshadoe 2 2,695 2015-10-07, 04:36 AM
Last Post: jerryshadoe

Forum Jump:


Users browsing this thread: 1 Guest(s)