Thread Rating:
  • 0 Vote(s) - 0 Average
  • 1
  • 2
  • 3
  • 4
  • 5
Amazon Matrix Open Mattes
#1
Amazon open matte Web-DLs of Reloaded and Revelations have appeared in the last few days and from a quick look they seem a bit dark too me. This is the first time I've seen OM versions at this quality though. Anyone else checked them out?

Code:
General
Unique ID                                : 187561533049172613011557158855592186710 (0x8D1B098BEED78BF0BB93A72F11751356)
Complete name                            : X:\apps\downloads\The Matrix Reloaded (2003)\The.Matrix.Reloaded.2003.Open.Matte.1080p.WEB-DL.DTS5.1.H264.mkv
Format                                   : Matroska
Format version                           : Version 4
File size                                : 13.8 GiB
Duration                                 : 2 h 17 min
Overall bit rate                         : 14.4 Mb/s
Movie name                               : The.Matrix.Reloaded.2003.Open.Matte.1080p.WEB-DL.DTS5.1.H264
Encoded date                             : UTC 2021-06-26 11:08:55
Writing application                      : mkvmerge v8.3.0 ('Over the Horizon') 64bit
Writing library                          : libebml v1.3.1 + libmatroska v1.4.2

Video
ID                                       : 1
Format                                   : AVC
Format/Info                              : Advanced Video Codec
Format profile                           : High@L4
Format settings                          : CABAC / 4 Ref Frames
Format settings, CABAC                   : Yes
Format settings, Reference frames        : 4 frames
Codec ID                                 : V_MPEG4/ISO/AVC
Duration                                 : 2 h 16 min
Bit rate                                 : 12.6 Mb/s
Width                                    : 1 920 pixels
Height                                   : 1 080 pixels
Display aspect ratio                     : 16:9
Frame rate mode                          : Constant
Frame rate                               : 23.976 (24000/1001) FPS
Color space                              : YUV
Chroma subsampling                       : 4:2:0
Bit depth                                : 8 bits
Scan type                                : Progressive
Bits/(Pixel*Frame)                       : 0.254
Stream size                              : 12.1 GiB (88%)
Title                                    : WEB-DL 1080p (Amazon)
Language                                 : English
Default                                  : Yes
Forced                                   : No
Color range                              : Limited
Color primaries                          : BT.709
Transfer characteristics                 : BT.709
Matrix coefficients                      : BT.709

Audio #1
ID                                       : 2
Format                                   : DTS
Format/Info                              : Digital Theater Systems
Codec ID                                 : A_DTS
Duration                                 : 2 h 17 min
Bit rate mode                            : Constant
Bit rate                                 : 1 509 kb/s
Channel(s)                               : 6 channels
Channel layout                           : C L R Ls Rs LFE
Sampling rate                            : 48.0 kHz
Frame rate                               : 93.750 FPS (512 SPF)
Bit depth                                : 16 bits
Compression mode                         : Lossy
Stream size                              : 1.44 GiB (10%)
Title                                    : BluRay
Language                                 : English
Default                                  : Yes
Forced                                   : No

Audio #2
ID                                       : 3
Format                                   : AC-3
Format/Info                              : Audio Coding 3
Commercial name                          : Dolby Digital
Codec ID                                 : A_AC3
Duration                                 : 2 h 17 min
Bit rate mode                            : Constant
Bit rate                                 : 128 kb/s
Channel(s)                               : 2 channels
Channel layout                           : L R
Sampling rate                            : 48.0 kHz
Frame rate                               : 31.250 FPS (1536 SPF)
Compression mode                         : Lossy
Stream size                              : 125 MiB (1%)
Title                                    : Commentary by Cornel West & Ken Wilber
Language                                 : English
Service kind                             : Complete Main
Default                                  : No
Forced                                   : No

Audio #3
ID                                       : 4
Format                                   : AC-3
Format/Info                              : Audio Coding 3
Commercial name                          : Dolby Digital
Codec ID                                 : A_AC3
Duration                                 : 2 h 17 min
Bit rate mode                            : Constant
Bit rate                                 : 128 kb/s
Channel(s)                               : 2 channels
Channel layout                           : L R
Sampling rate                            : 48.0 kHz
Frame rate                               : 31.250 FPS (1536 SPF)
Compression mode                         : Lossy
Stream size                              : 125 MiB (1%)
Title                                    : Commentary by Tom McCarthy, David Thomson & John Powers
Language                                 : English
Service kind                             : Complete Main
Default                                  : No
Forced                                   : No

Text #1
ID                                       : 5
Format                                   : UTF-8
Codec ID                                 : S_TEXT/UTF8
Codec ID/Info                            : UTF-8 Plain Text
Duration                                 : 2 h 16 min
Bit rate                                 : 67 b/s
Count of elements                        : 1173
Stream size                              : 66.9 KiB (0%)
Title                                    : BluRay
Language                                 : Russian
Default                                  : No
Forced                                   : No

Text #2
ID                                       : 6
Format                                   : UTF-8
Codec ID                                 : S_TEXT/UTF8
Codec ID/Info                            : UTF-8 Plain Text
Duration                                 : 2 h 15 min
Bit rate                                 : 66 b/s
Count of elements                        : 1176
Stream size                              : 66.3 KiB (0%)
Language                                 : Ukrainian
Default                                  : No
Forced                                   : No

Text #3
ID                                       : 7
Format                                   : UTF-8
Codec ID                                 : S_TEXT/UTF8
Codec ID/Info                            : UTF-8 Plain Text
Duration                                 : 2 h 5 min
Bit rate                                 : 49 b/s
Count of elements                        : 1180
Stream size                              : 45.1 KiB (0%)
Title                                    : BluRay
Language                                 : English
Default                                  : No
Forced                                   : No

Text #4
ID                                       : 8
Format                                   : UTF-8
Codec ID                                 : S_TEXT/UTF8
Codec ID/Info                            : UTF-8 Plain Text
Duration                                 : 2 h 14 min
Bit rate                                 : 49 b/s
Count of elements                        : 1660
Stream size                              : 48.9 KiB (0%)
Title                                    : SDH, Amazon
Language                                 : English
Default                                  : No
Forced                                   : No

Menu
00:00:00.000                             : en:Trinity's In
00:03:50.730                             : en:Trust Me
00:08:55.868                             : en:Upgrades
00:12:17.027                             : en:Zion
00:16:24.399                             : en:Matter of Time
00:19:43.682                             : en:Homecomings
00:23:29.907                             : en:We Are Still Here
00:27:27.103                             : en:Celebrating Humanity
00:32:01.085                             : en:Smith Will Suffice
00:33:43.354                             : en:What Is Control?
00:37:57.649                             : en:Summoned
00:40:55.827                             : en:Seraph
00:43:44.871                             : en:The Oracle
00:50:43.206                             : en:Swarm of Smiths
00:55:08.304                             : en:Sticking It to Them
01:00:02.681                             : en:The Volunteer
01:02:50.266                             : en:Taste of Merovingian
01:08:52.628                             : en:Persephone's Kiss
01:13:06.798                             : en:Unlocking the Keymaker
01:16:21.910                             : en:Blade Leapers
01:20:32.327                             : en:Twin Trouble
01:22:47.211                             : en:Freeway Entrance
01:26:12.583                             : en:Cross-Vehicular Traffic
01:29:52.553                             : en:Biker Girl
01:32:50.898                             : en:Trucks Amuck
01:37:11.325                             : en:The Reason We're Here
01:40:52.462                             : en:Sacrifice and Sabotage
01:44:57.907                             : en:So Many of Me
01:48:12.652                             : en:The Architect
01:52:26.072                             : en:The One's Function
01:55:43.436                             : en:Neo's Choice
01:57:37.599                             : en:Not Letting Go
02:01:51.845                             : en:Bomb's Target
02:04:18.951                             : en:Feeling the Enemy
02:07:04.277                             : en:End Credits (Calm Like a Bomb, Reload, Sleeping Awake, Session, When the World Ends (Oakenfold Remix))

Code:
General
Unique ID                                : 195150088938111350856228817050257440394 (0x92D08A3D04D4C6FAA1036CE80B45BE8A)
Complete name                            : X:\apps\downloads\The Matrix Revolutions (2003)\The.Matrix.Revolutions.2003.Open.Matte.1080p.WEB-DL.DTS5.1.H264.mkv
Format                                   : Matroska
Format version                           : Version 4
File size                                : 12.1 GiB
Duration                                 : 2 h 9 min
Overall bit rate                         : 13.5 Mb/s
Movie name                               : The.Matrix.Revolutions.2003.Open.Matte.1080p.WEB-DL.DTS5.1.H264
Encoded date                             : UTC 2021-07-01 05:14:31
Writing application                      : mkvmerge v8.3.0 ('Over the Horizon') 64bit
Writing library                          : libebml v1.3.1 + libmatroska v1.4.2

Video
ID                                       : 1
Format                                   : AVC
Format/Info                              : Advanced Video Codec
Format profile                           : High@L4
Format settings                          : CABAC / 4 Ref Frames
Format settings, CABAC                   : Yes
Format settings, Reference frames        : 4 frames
Codec ID                                 : V_MPEG4/ISO/AVC
Duration                                 : 2 h 9 min
Bit rate                                 : 11.7 Mb/s
Width                                    : 1 920 pixels
Height                                   : 1 080 pixels
Display aspect ratio                     : 16:9
Frame rate mode                          : Constant
Frame rate                               : 23.976 (24000/1001) FPS
Color space                              : YUV
Chroma subsampling                       : 4:2:0
Bit depth                                : 8 bits
Scan type                                : Progressive
Bits/(Pixel*Frame)                       : 0.235
Stream size                              : 10.5 GiB (87%)
Title                                    : WEB-DL 1080p (Amazon)
Language                                 : English
Default                                  : Yes
Forced                                   : No
Color range                              : Limited
Color primaries                          : BT.709
Transfer characteristics                 : BT.709
Matrix coefficients                      : BT.709

Audio #1
ID                                       : 2
Format                                   : DTS
Format/Info                              : Digital Theater Systems
Codec ID                                 : A_DTS
Duration                                 : 2 h 9 min
Bit rate mode                            : Constant
Bit rate                                 : 1 509 kb/s
Channel(s)                               : 6 channels
Channel layout                           : C L R Ls Rs LFE
Sampling rate                            : 48.0 kHz
Frame rate                               : 93.750 FPS (512 SPF)
Bit depth                                : 16 bits
Compression mode                         : Lossy
Stream size                              : 1.36 GiB (11%)
Title                                    : BluRay
Language                                 : English
Default                                  : Yes
Forced                                   : No

Audio #2
ID                                       : 3
Format                                   : AC-3
Format/Info                              : Audio Coding 3
Commercial name                          : Dolby Digital
Codec ID                                 : A_AC3
Duration                                 : 2 h 9 min
Bit rate mode                            : Constant
Bit rate                                 : 128 kb/s
Channel(s)                               : 2 channels
Channel layout                           : L R
Sampling rate                            : 48.0 kHz
Frame rate                               : 31.250 FPS (1536 SPF)
Compression mode                         : Lossy
Stream size                              : 118 MiB (1%)
Title                                    : Commentary by Cornel West & Ken Wilber
Language                                 : English
Service kind                             : Complete Main
Default                                  : No
Forced                                   : No

Audio #3
ID                                       : 4
Format                                   : AC-3
Format/Info                              : Audio Coding 3
Commercial name                          : Dolby Digital
Codec ID                                 : A_AC3
Duration                                 : 2 h 9 min
Bit rate mode                            : Constant
Bit rate                                 : 128 kb/s
Channel(s)                               : 2 channels
Channel layout                           : L R
Sampling rate                            : 48.0 kHz
Frame rate                               : 31.250 FPS (1536 SPF)
Compression mode                         : Lossy
Stream size                              : 118 MiB (1%)
Title                                    : Commentary by Tom McCarthy, David Thomson & John Powers
Language                                 : English
Service kind                             : Complete Main
Default                                  : No
Forced                                   : No

Text #1
ID                                       : 5
Format                                   : UTF-8
Codec ID                                 : S_TEXT/UTF8
Codec ID/Info                            : UTF-8 Plain Text
Duration                                 : 2 h 8 min
Bit rate                                 : 60 b/s
Count of elements                        : 1084
Stream size                              : 56.9 KiB (0%)
Title                                    : BluRay
Language                                 : Russian
Default                                  : No
Forced                                   : No

Text #2
ID                                       : 6
Format                                   : UTF-8
Codec ID                                 : S_TEXT/UTF8
Codec ID/Info                            : UTF-8 Plain Text
Duration                                 : 2 h 8 min
Bit rate                                 : 60 b/s
Count of elements                        : 1083
Stream size                              : 56.7 KiB (0%)
Language                                 : Ukrainian
Default                                  : No
Forced                                   : No

Text #3
ID                                       : 7
Format                                   : UTF-8
Codec ID                                 : S_TEXT/UTF8
Codec ID/Info                            : UTF-8 Plain Text
Duration                                 : 1 h 58 min
Bit rate                                 : 42 b/s
Count of elements                        : 1071
Stream size                              : 36.6 KiB (0%)
Title                                    : BluRay
Language                                 : English
Default                                  : No
Forced                                   : No

Text #4
ID                                       : 8
Format                                   : UTF-8
Codec ID                                 : S_TEXT/UTF8
Codec ID/Info                            : UTF-8 Plain Text
Duration                                 : 2 h 7 min
Bit rate                                 : 39 b/s
Count of elements                        : 1110
Stream size                              : 37.5 KiB (0%)
Title                                    : SDH, BluRay
Language                                 : English
Default                                  : No
Forced                                   : No

Menu
00:00:00.000                             : en:20 Hours to Go
00:03:54.401                             : en:Trapped
00:07:31.284                             : en:The Connection Matters
00:10:17.908                             : en:Down Here I'm God
00:14:42.673                             : en:Coat-Check Chaos
00:17:56.616                             : en:Interesting Deal
00:23:31.367                             : en:The End Is Coming
00:30:04.510                             : en:We Meet at Last
00:35:33.755                             : en:The Logos Found
00:39:31.933                             : en:Volunteers
00:42:57.072                             : en:I Believe in Him
00:46:41.046                             : en:Nothing's Changed
00:49:00.852                             : en:Stowaway
00:51:51.773                             : en:See Your Enemy
00:57:58.806                             : en:Give 'em Hell
01:00:17.152                             : en:Detected
01:02:27.950                             : en:Breaching the Dome
01:07:59.072                             : en:Storming Sentinels
01:10:27.740                             : en:Trying to Keep Up
01:14:32.006                             : en:Unfinished Business
01:18:21.360                             : en:Hell of a Pilot
01:23:07.061                             : en:Report to the Council
01:25:54.061                             : en:Believers
01:29:10.966                             : en:Glimpse of the Sky
01:31:51.210                             : en:Saying What Matters
01:36:49.591                             : en:A Truce
01:41:53.477                             : en:It Ends Tonight
01:44:51.197                             : en:Urban Splash
01:48:04.723                             : en:Neo's Choice
01:51:31.137                             : en:Inevitable and Over
01:55:03.933                             : en:Real Peace
01:57:29.495                             : en:Freedom and Sunlight
02:00:09.155                             : en:End Credits
Reply
Thanks given by:
#2
They are available on the web for about four months, there is not a successful conversion to SDR and, as a result, a dark picture with loss of detail in dark places. But basically the picture quality is the best available, I have different HDTV and WEB with less better quality.
Reply
Thanks given by:
#3
I can't seem to find these web-dl's. what tracker are they on?
Reply
Thanks given by:
#4
I'll have to download these and give them a look, here's a screenshot from each, would need to sync up with the BD to compare how much information you're getting in comparison:

The Matrix Reloaded
[Image: 3OTPYnNF_o.png]

The Matrix Revolutions
[Image: IdZwIB3e_o.png]
Reply
Thanks given by: dwalkerdon
#5
Odd that The Matrix hasn't appeared yet (unless it's on private trackers).
Reply
Thanks given by:
#6
the second and third parts are on TeamHD
Reply
Thanks given by:


Possibly Related Threads…
Thread Author Replies Views Last Post
  [versions] 4:3 open matte version of 1963's Blood Feast SpaceBlackKnight 0 445 2021-03-19, 04:44 AM
Last Post: SpaceBlackKnight
  Lord of the Rings trilogy - open matte spoRv 102 64,899 2019-03-03, 10:43 PM
Last Post: PDB
  [Help] in a web site about open matte... spoRv 10 4,463 2018-11-13, 12:40 PM
Last Post: spoRv
  An American Werewolf in London open matte? drsyn71 3 2,276 2018-04-28, 12:36 PM
Last Post: spoRv

Forum Jump:


Users browsing this thread: 1 Guest(s)