Thread Rating:
  • 0 Vote(s) - 0 Average
  • 1
  • 2
  • 3
  • 4
  • 5
[Released] The Shining - German Version Preservation
#1
[Image: 27Vu0x7.jpg]
  
[Image: mrUPXdM.jpg]

After completing the German Version Preservation of Kubrick’s “Barry Lyndon”, I decided that this might be a long-term project, to preserve German versions of Stanley Kubrick’s films. And the next in row was the most complex of them, namely “The Shining”.

Now the project is released.

(Link to WIP thread)

Screenshots


[Image: nhT6ciN.jpg][Image: OORDflT.jpg][Image: 8dRFF4s.jpg]


More Screenshots

Scope of the project

Here are the things I aimed to achieve.
  • International version
  • 4:3 Fullscreen version and 16:9 version in HD
  • 70s WB logo
  • German intro credits
  • German intertitles
  • German typewriter footage
  • German photo of Jack at the end
  • German End Credits
  • German and English mono audio
  • German and English subtitles
  • Other little things
International version
The German version was the 120-min International version of the movie. The new 4K restoration is, however, the US version (with additional footage dubbed recently and rather badly - sadly, Kubrick was not around anymore to prevent such an outrage). This was the version I was conforming to.

4:3 Fullscreen version and 16:9 version in HD
I have been able to obtain a WEB-DL of The Shining in 1080p and 4:3. Although the quality was suboptimal (many compression artefacts) I decided to use it as the main version for the restoration.
Due to those artifacts, I decided to also make a branch of the project, a 16:9 version (with the first BluRay as a source). Therefore, all the needed footage was created in 4K resolution to be scaled down accordingly for each of the versions.

70s WB logo
As “Shining”, when originally released, made use of the 1970s WB logo, I cut it in instead of the 80s one. (The source being the HD version of “The Bugs Bunny Roadrunner Movie”).

German intro credits
I attempted various ways of upscaling existing intro credits. From the digitally re-created interlaced German TV ones to an upscale and regrade of the original VHS footage. None of them brought any decent results.
So it was decided to do it frame by frame, removing the German parts in the intro credits (“Produced and Directed by” - “Produktion und Regie”) and cleaning it up. That was possible by programming some clever Photoshop actions and scripts, though led initially to some weird artifacts.
However, it was quite helpful that the digital TV version had a custom-made intro, having different timings and placement of the scrolling text. Therefore, it was in parts possible to “patch” over the credits with blank footage. After that, some very complex retouching and color/levels adjustments were necessary. However, I am quite pleased with the results, and there are only a few artifacts left.


German intertitles
The original intertitles were replaced by German ones, according to the original translations from the VHS. The letter look and spacing were approximated to that of the original German texts.

German typewriter footage
Now that was probably the 2nd main reason for doing this at all. Originally, Kubrick shot different international versions of the typewriter footage, replacing the words “All work and no play makes Jack a dull boy” with various proverbs in other languages, which would be more or less fitting. The German saying used was “Was du heute kannst besorgen, das verschiebe nicht auf morgen” (Do not hold off for tomorrow what you can get done today).
The footage was in a decent quality from the German digital TV recording, and was already upscaled and cleaned up by Taddäus Tentakel. My job was just to upscale it some more with some of my AVS scripts.
Also an interesting point: the German typewriter footage actually doesn’t sync up to the English (or German 5.1) audio, only to the original German mono.


German photo of Jack at the end
The last shot of the movie was replaced by a German-localized version, having a German inscription on the photograph. This was the last thing I did, as I originally planned to used scaled-up VHS footage. However, after having put so much effort into the intro credits, it would just not do the product justice quality-wise. Therefore, the German text was recreated and the pan down re-done. Also, that German insert did not have the dissolve effect the original version had. The missing of the dissolve was also recreated.

German End Credits
The end credits were done using the German VHS footage and the high-res of 4K UHD which was then scaled down for both the 4:3 and 16:9 version. The German credits had some small differences, adding or moving some names from one title to another. Also they had two cards added, crediting the creator of the German versions and the German dubbing speakers.
Also, the original spelling errors were re-created.


German and English mono audio
The German mono audio was taken from the digital TV version. It had quite a decent quality, too, except in the end credits. This part was replaced by the English mono.
The English mono was taken from the 1st edition of the US version of the 4:3 DVD (it was later replaced by a version without a mono track. Clearly, Leon Vitali seems not to like mono). The audio needed to be conformed to the European version.
Also, the English and German 5.1 Dolby Digital versions are conteined as a bonus.

As stated before, the German mono version actually used different production sound (or foley design) at the typewriter footage, which is conformed to the German version. The German 5.1 and the English track are out of sync in this shots.

German and English subtitles
There are following subtitles available:
  • German
  • German for the Hard of Hearing
  • English Inserts
  • English
  • English for the Hard of Hearing

The subtitles were adapted to the fact that the intertitles and typewriter footage are in German, so they are translated into English via the subtitles (and are removed from the German subtitles, accordingly).

Other little things
Chapters were created for the video using the International BluRay chapters. The names of the chapters are taken from the 2001 4:3 DVD (English and German versions).

Thanks to
pinheadraiser
Taddäus Tentakel
SpaceBlackKnight
pipefan413


MediaInfo

4:3 version:


Code:
General
Unique ID                                : 300888622328525512683105980143616784608 (0xE25D0A6FB14A557691065361D251F8E0)
Complete name                            : Shining_German_4_3.mkv
Format                                   : Matroska
Format version                           : Version 4
File size                                : 7.67 GiB
Duration                                 : 1 h 59 min
Overall bit rate mode                    : Variable
Overall bit rate                         : 9 168 kb/s
Encoded date                             : UTC 2021-08-04 06:09:49
Writing application                      : mkvmerge v60.0.0 ('Are We Copies?') 64-bit
Writing library                          : libebml v1.4.2 + libmatroska v1.6.4

Video
ID                                       : 1
Format                                   : AVC
Format/Info                              : Advanced Video Codec
Format profile                           : High@L4.1
Format settings                          : CABAC / 5 Ref Frames
Format settings, CABAC                   : Yes
Format settings, Reference frames        : 5 frames
Codec ID                                 : V_MPEG4/ISO/AVC
Duration                                 : 1 h 59 min
Bit rate mode                            : Variable
Bit rate                                 : 5 967 kb/s
Maximum bit rate                         : 40.0 Mb/s
Width                                    : 1 480 pixels
Height                                   : 1 080 pixels
Display aspect ratio                     : 1.370
Frame rate mode                          : Constant
Frame rate                               : 23.976 (24000/1001) FPS
Color space                              : YUV
Chroma subsampling                       : 4:2:0
Bit depth                                : 8 bits
Scan type                                : Progressive
Bits/(Pixel*Frame)                       : 0.156
Stream size                              : 4.99 GiB (65%)
Default                                  : Yes
Forced                                   : No
Color range                              : Limited
Color primaries                          : BT.709
Transfer characteristics                 : BT.709
Matrix coefficients                      : BT.709

Audio #1
ID                                       : 2
Format                                   : PCM
Format settings                          : Little / Signed
Codec ID                                 : A_PCM/INT/LIT
Duration                                 : 1 h 59 min
Bit rate mode                            : Constant
Bit rate                                 : 768 kb/s
Channel(s)                               : 1 channel
Sampling rate                            : 48.0 kHz
Frame rate                               : 25.000 FPS (1920 SPF)
Bit depth                                : 16 bits
Delay relative to video                  : 50 ms
Stream size                              : 658 MiB (8%)
Title                                    : Deutsch (Mono)
Language                                 : German
Default                                  : Yes
Forced                                   : No

Audio #2
ID                                       : 3
Format                                   : AC-3
Format/Info                              : Audio Coding 3
Commercial name                          : Dolby Digital
Codec ID                                 : A_AC3
Duration                                 : 1 h 59 min
Bit rate mode                            : Constant
Bit rate                                 : 640 kb/s
Channel(s)                               : 6 channels
Channel layout                           : L R C LFE Ls Rs
Sampling rate                            : 48.0 kHz
Frame rate                               : 31.250 FPS (1536 SPF)
Compression mode                         : Lossy
Delay relative to video                  : 50 ms
Stream size                              : 548 MiB (7%)
Title                                    : Deutsch (5.1)
Language                                 : German
Service kind                             : Complete Main
Default                                  : Yes
Forced                                   : No

Audio #3
ID                                       : 4
Format                                   : PCM
Format settings                          : Little / Signed
Codec ID                                 : A_PCM/INT/LIT
Duration                                 : 1 h 59 min
Bit rate mode                            : Constant
Bit rate                                 : 1 152 kb/s
Channel(s)                               : 1 channel
Sampling rate                            : 48.0 kHz
Frame rate                               : 25.000 FPS (1920 SPF)
Bit depth                                : 24 bits
Delay relative to video                  : 50 ms
Stream size                              : 986 MiB (13%)
Title                                    : English (Mono)
Language                                 : English
Default                                  : Yes
Forced                                   : No

Audio #4
ID                                       : 5
Format                                   : AC-3
Format/Info                              : Audio Coding 3
Commercial name                          : Dolby Digital
Codec ID                                 : A_AC3
Duration                                 : 1 h 59 min
Bit rate mode                            : Constant
Bit rate                                 : 640 kb/s
Channel(s)                               : 6 channels
Channel layout                           : L R C LFE Ls Rs
Sampling rate                            : 48.0 kHz
Frame rate                               : 31.250 FPS (1536 SPF)
Compression mode                         : Lossy
Delay relative to video                  : 50 ms
Stream size                              : 548 MiB (7%)
Title                                    : English (5.1)
Language                                 : English
Service kind                             : Complete Main
Default                                  : Yes
Forced                                   : No

Text #1
ID                                       : 6
Format                                   : UTF-8
Codec ID                                 : S_TEXT/UTF8
Codec ID/Info                            : UTF-8 Plain Text
Duration                                 : 1 h 51 min
Bit rate                                 : 37 b/s
Count of elements                        : 1028
Stream size                              : 31.0 KiB (0%)
Title                                    : Deutsch
Language                                 : German
Default                                  : Yes
Forced                                   : No

Text #2
ID                                       : 7
Format                                   : UTF-8
Codec ID                                 : S_TEXT/UTF8
Codec ID/Info                            : UTF-8 Plain Text
Duration                                 : 1 h 52 min
Bit rate                                 : 38 b/s
Count of elements                        : 1042
Stream size                              : 32.0 KiB (0%)
Title                                    : Deutsch für Hörgeschädigte
Language                                 : German
Default                                  : Yes
Forced                                   : No

Text #3
ID                                       : 8
Format                                   : UTF-8
Codec ID                                 : S_TEXT/UTF8
Codec ID/Info                            : UTF-8 Plain Text
Duration                                 : 1 h 54 min
Bit rate                                 : 0 b/s
Count of elements                        : 11
Stream size                              : 205 Bytes (0%)
Title                                    : English Inserts
Language                                 : English
Default                                  : Yes
Forced                                   : No

Text #4
ID                                       : 9
Format                                   : UTF-8
Codec ID                                 : S_TEXT/UTF8
Codec ID/Info                            : UTF-8 Plain Text
Duration                                 : 1 h 54 min
Bit rate                                 : 36 b/s
Count of elements                        : 1107
Stream size                              : 30.2 KiB (0%)
Title                                    : English
Language                                 : English
Default                                  : Yes
Forced                                   : No

Text #5
ID                                       : 10
Format                                   : UTF-8
Codec ID                                 : S_TEXT/UTF8
Codec ID/Info                            : UTF-8 Plain Text
Duration                                 : 1 h 54 min
Bit rate                                 : 37 b/s
Count of elements                        : 1157
Stream size                              : 31.4 KiB (0%)
Title                                    : English for the Hard of Hearing
Language                                 : English
Default                                  : Yes
Forced                                   : No

16:9 version:

Code:
General
Unique ID                                : 166100980868511433202393319662104602837 (0x7CF5E2A2043A04A179D1C571B773E8D5)
Complete name                            : Shining_German_16_9.mkv
Format                                   : Matroska
Format version                           : Version 4
File size                                : 19.4 GiB
Duration                                 : 1 h 59 min
Overall bit rate                         : 23.2 Mb/s
Encoded date                             : UTC 2021-08-04 05:49:40
Writing application                      : mkvmerge v60.0.0 ('Are We Copies?') 64-bit
Writing library                          : libebml v1.4.2 + libmatroska v1.6.4

Video
ID                                       : 1
Format                                   : AVC
Format/Info                              : Advanced Video Codec
Format profile                           : High@L4.1
Format settings                          : CABAC / 4 Ref Frames
Format settings, CABAC                   : Yes
Format settings, Reference frames        : 4 frames
Codec ID                                 : V_MPEG4/ISO/AVC
Duration                                 : 1 h 59 min
Bit rate                                 : 20.0 Mb/s
Width                                    : 1 920 pixels
Height                                   : 1 080 pixels
Display aspect ratio                     : 16:9
Frame rate mode                          : Constant
Frame rate                               : 23.976 (24000/1001) FPS
Color space                              : YUV
Chroma subsampling                       : 4:2:0
Bit depth                                : 8 bits
Scan type                                : Progressive
Bits/(Pixel*Frame)                       : 0.402
Stream size                              : 16.7 GiB (86%)
Writing library                          : x264 core 157 r2935 545de2f
Encoding settings                        : cabac=1 / ref=4 / deblock=1:-1:-1 / analyse=0x3:0x113 / me=hex / subme=8 / psy=1 / psy_rd=1.00:0.15 / mixed_ref=1 / me_range=16 / chroma_me=1 / trellis=2 / 8x8dct=1 / cqm=0 / deadzone=21,11 / fast_pskip=1 / chroma_qp_offset=-3 / threads=12 / lookahead_threads=2 / sliced_threads=0 / nr=0 / decimate=1 / interlaced=0 / bluray_compat=0 / constrained_intra=0 / bframes=3 / b_pyramid=2 / b_adapt=1 / b_bias=0 / direct=3 / weightb=1 / open_gop=0 / weightp=2 / keyint=240 / keyint_min=24 / scenecut=40 / intra_refresh=0 / rc_lookahead=50 / rc=2pass / mbtree=1 / bitrate=20000 / ratetol=1.0 / qcomp=0.60 / qpmin=0 / qpmax=69 / qpstep=4 / cplxblur=20.0 / qblur=0.5 / vbv_maxrate=62500 / vbv_bufsize=78125 / nal_hrd=none / filler=0 / ip_ratio=1.40 / aq=1:1.00
Default                                  : Yes
Forced                                   : No
Color range                              : Limited
Color primaries                          : BT.709
Transfer characteristics                 : BT.709
Matrix coefficients                      : BT.709

Audio #1
ID                                       : 2
Format                                   : PCM
Format settings                          : Little / Signed
Codec ID                                 : A_PCM/INT/LIT
Duration                                 : 1 h 59 min
Bit rate mode                            : Constant
Bit rate                                 : 768 kb/s
Channel(s)                               : 1 channel
Sampling rate                            : 48.0 kHz
Frame rate                               : 25.000 FPS (1920 SPF)
Bit depth                                : 16 bits
Stream size                              : 658 MiB (3%)
Title                                    : Deutsch (Mono)
Language                                 : German
Default                                  : Yes
Forced                                   : No

Audio #2
ID                                       : 3
Format                                   : AC-3
Format/Info                              : Audio Coding 3
Commercial name                          : Dolby Digital
Codec ID                                 : A_AC3
Duration                                 : 1 h 59 min
Bit rate mode                            : Constant
Bit rate                                 : 640 kb/s
Channel(s)                               : 6 channels
Channel layout                           : L R C LFE Ls Rs
Sampling rate                            : 48.0 kHz
Frame rate                               : 31.250 FPS (1536 SPF)
Compression mode                         : Lossy
Stream size                              : 548 MiB (3%)
Title                                    : Deutsch (5.1)
Language                                 : German
Service kind                             : Complete Main
Default                                  : Yes
Forced                                   : No

Audio #3
ID                                       : 4
Format                                   : PCM
Format settings                          : Little / Signed
Codec ID                                 : A_PCM/INT/LIT
Duration                                 : 1 h 59 min
Bit rate mode                            : Constant
Bit rate                                 : 1 152 kb/s
Channel(s)                               : 1 channel
Sampling rate                            : 48.0 kHz
Frame rate                               : 25.000 FPS (1920 SPF)
Bit depth                                : 24 bits
Stream size                              : 986 MiB (5%)
Title                                    : English (Mono)
Language                                 : English
Default                                  : Yes
Forced                                   : No

Audio #4
ID                                       : 5
Format                                   : AC-3
Format/Info                              : Audio Coding 3
Commercial name                          : Dolby Digital
Codec ID                                 : A_AC3
Duration                                 : 1 h 59 min
Bit rate mode                            : Constant
Bit rate                                 : 640 kb/s
Channel(s)                               : 6 channels
Channel layout                           : L R C LFE Ls Rs
Sampling rate                            : 48.0 kHz
Frame rate                               : 31.250 FPS (1536 SPF)
Compression mode                         : Lossy
Stream size                              : 548 MiB (3%)
Title                                    : English (5.1)
Language                                 : English
Service kind                             : Complete Main
Default                                  : Yes
Forced                                   : No

Text #1
ID                                       : 6
Format                                   : UTF-8
Codec ID                                 : S_TEXT/UTF8
Codec ID/Info                            : UTF-8 Plain Text
Duration                                 : 1 h 51 min
Bit rate                                 : 37 b/s
Count of elements                        : 1028
Stream size                              : 31.0 KiB (0%)
Title                                    : Deutsch
Language                                 : German
Default                                  : Yes
Forced                                   : No

Text #2
ID                                       : 7
Format                                   : UTF-8
Codec ID                                 : S_TEXT/UTF8
Codec ID/Info                            : UTF-8 Plain Text
Duration                                 : 1 h 52 min
Bit rate                                 : 38 b/s
Count of elements                        : 1042
Stream size                              : 32.0 KiB (0%)
Title                                    : Deutsch für Hörgeschädigte
Language                                 : German
Default                                  : Yes
Forced                                   : No

Text #3
ID                                       : 8
Format                                   : UTF-8
Codec ID                                 : S_TEXT/UTF8
Codec ID/Info                            : UTF-8 Plain Text
Duration                                 : 1 h 54 min
Bit rate                                 : 0 b/s
Count of elements                        : 11
Stream size                              : 205 Bytes (0%)
Title                                    : English Inserts
Language                                 : English
Default                                  : Yes
Forced                                   : No

Text #4
ID                                       : 9
Format                                   : UTF-8
Codec ID                                 : S_TEXT/UTF8
Codec ID/Info                            : UTF-8 Plain Text
Duration                                 : 1 h 54 min
Bit rate                                 : 36 b/s
Count of elements                        : 1107
Stream size                              : 30.2 KiB (0%)
Title                                    : English
Language                                 : English
Default                                  : Yes
Forced                                   : No

Text #5
ID                                       : 10
Format                                   : UTF-8
Codec ID                                 : S_TEXT/UTF8
Codec ID/Info                            : UTF-8 Plain Text
Duration                                 : 1 h 54 min
Bit rate                                 : 37 b/s
Count of elements                        : 1157
Stream size                              : 31.4 KiB (0%)
Title                                    : English for the Hard of Hearing
Language                                 : English
Default                                  : Yes
Forced                                   : No
[Image: 27Vu0x7.jpg]
Reply
Thanks given by: Dr. Cooper , Hitcher , jackjason , mofo69
#2
Congrats on finishing
New, low or non-posting members: Please do not post or PM me asking where to get something or what the current status of a project is. Such requests are ignored. Instead, stick around and become a participating member. Thank you.

Reply
Thanks given by: TheHutt
#3
(2021-08-05, 01:07 PM)PDB Wrote: Congrats on finishing

Thanks!
Reply
Thanks given by:
#4
And of course, after releasing, some errors in the German mono audio popped up:
- Some distortion in the opening sequence
- After "The End", a short artifact of the credit music seeps in.

These errors have been fixed and the German audio is added as a separate file (so it can be muxed in or sideloaded during playback).
Reply
Thanks given by:
#5
You're doing amazing stuff! Congrats on finishing, indeed!
AKA thxita on OriginalTrilogy
I preserve movies as they first appeared in Italy.
Reply
Thanks given by: TheHutt
#6
(2021-08-06, 10:44 AM)Evit Wrote: You're doing amazing stuff! Congrats on finishing, indeed!

Thank you!
[Image: 27Vu0x7.jpg]
Reply
Thanks given by:
#7
And yet another fix for a little oversight by me.

The German theatrical version had a subtitle translation “MORD” when “REDRUM” is shown in the mirror (and revealing “MURDEЯ”). That went unnoticed by me.

I have now provided a separate subtitle file (for 16:9 and the 4:3 versions) with this one insert done via soft UT.
[Image: 27Vu0x7.jpg]
Reply
Thanks given by:
#8
Very great job, @TheHutt
Reply
Thanks given by: TheHutt
#9
Thanks!
[Image: 27Vu0x7.jpg]
Reply
Thanks given by:
#10
It seems to be great, where can I find it?
Reply
Thanks given by:


Possibly Related Threads…
Thread Author Replies Views Last Post
  [Released] Halloween Criterion Laserdisc Preservation alleycat 9 3,029 Yesterday, 03:38 AM
Last Post: crowe-t
  [Released] Wallace & Gromit in "The Wrong Trousers" - Original Audio Preservation Dek Rollins 5 2,942 2021-09-22, 12:22 PM
Last Post: lca96
Video [Released] The Shining (1980) - Zemastered Edition narth 16 3,177 2021-09-20, 08:23 PM
Last Post: narth
  Star Trek: The Motion Picture - Director's Edition HD Recreation (Version 3 out now) iguanaclerk 89 39,419 2021-09-12, 06:14 PM
Last Post: Jim36
  STANLEY KUBRICK German Preservation Project - Overview Thread TheHutt 1 228 2021-08-23, 11:23 PM
Last Post: TheHutt
  [Released] Highlander II - European Theatrical Cut - Preservation - Version 2! HippieDalek 90 20,556 2021-08-23, 11:32 AM
Last Post: HippieDalek
Video Star Trek: The Motion Picture - Special Longer Version HD Recreation TheLoon 42 8,580 2021-08-17, 03:03 PM
Last Post: chrisincolour
  [Released] Highlander - The French Theatrical Cut - Preservation HippieDalek 15 4,646 2021-07-28, 04:11 AM
Last Post: Perene
  [Released] Highlander II - US Theatrical Cut - Preservation HippieDalek 23 6,290 2021-07-12, 06:02 PM
Last Post: Marius09715
  Psycho (1960): Uncut Version Reconstruction - BD25 The Aluminum Falcon 47 21,605 2021-07-04, 03:19 AM
Last Post: GreedoNeverShot

Forum Jump:


Users browsing this thread: 1 Guest(s)