Thread Rating:
  • 0 Vote(s) - 0 Average
  • 1
  • 2
  • 3
  • 4
  • 5
[Released] Déjà Vu (2006) Open Matte
#1
Called in to recover evidence in the aftermath of a horrific explosion on a New Orleans ferry,
Federal agent Doug Carlin gets pulled away from the scene
and taken to a top-secret government lab that uses a time-shifting surveillance device to help prevent crime.

[Image: cuAO3kN5VqnIRd0iREcWEw8pvNj.jpg]

Made from 4 different sources - HDTV 1080p (24fps) open matte, HDTV 1080i (25fps) open matte, BluRay 1080p 2.40:1, and iTunes.

----

The HDTV 1080p (24fps) open matte was used for most of the film except for the opening title sequence because it was in Russian -

[Image: 5wkOObm.png]

For this section the HDTV 1080i (25fps) open matte was used as it was in English but unfortunately also had a logo -

[Image: Egs1nuG.png]

This had to be de-interlaced, have its framerate reduced from 25fps to 23.98fps, and finally have its logo removed using a mask -

[Image: g3CprZf.png]

Both open mattes had a Russian dedication at the end of the film -

[Image: uVX7J5a.png]

For this the BluRay was used -

[Image: YIj7TiW.png]

Both open mattes have AC3 5.1 soundtracks so the BluRay DTS 5.1 mix was synced and added as well.

And finally the named chapters were used from the iTunes version -

Chapter 01: Act of Terrorism
Chapter 02: A Crime Investigation
Chapter 03: Claire Kachever
Chapter 04: Unique Time Constraints
Chapter 05: Snow White
Chapter 06: Who's Watching Her?
Chapter 07: That's Him
Chapter 08: Something Breached the Field
Chapter 09: Branching the Universe
Chapter 10: Out of Range
Chapter 11: Motive
Chapter 12: Four Days Ago
Chapter 13: They'd Never Believe You
Chapter 14: Change of Plans
Chapter 15: Have We Met?
Chapter 16: End Credits

Code:
General
Unique ID                                : 191795224606582454785119158942255892787 (0x904A6AA800E266BB2748C699885D4933)
Complete name                            : Deja Vu (2006) Open Matte.mkv
Format                                   : Matroska
Format version                           : Version 4
File size                                : 6.15 GiB
Duration                                 : 2 h 6 min
Overall bit rate                         : 6 957 kb/s
Encoded date                             : UTC 2021-11-03 18:11:32
Writing application                      : mkvmerge v60.0.0 ('Are We Copies?') 64-bit
Writing library                          : libebml v1.4.2 + libmatroska v1.6.4

Video
ID                                       : 1
Format                                   : AVC
Format/Info                              : Advanced Video Codec
Format profile                           : High@L4.1
Format settings                          : CABAC / 4 Ref Frames
Format settings, CABAC                   : Yes
Format settings, Reference frames        : 4 frames
Codec ID                                 : V_MPEG4/ISO/AVC
Duration                                 : 2 h 6 min
Bit rate                                 : 5 000 kb/s
Width                                    : 1 920 pixels
Height                                   : 1 080 pixels
Display aspect ratio                     : 16:9
Frame rate mode                          : Constant
Frame rate                               : 23.976 (24000/1001) FPS
Color space                              : YUV
Chroma subsampling                       : 4:2:0
Bit depth                                : 8 bits
Scan type                                : Progressive
Bits/(Pixel*Frame)                       : 0.101
Stream size                              : 4.42 GiB (72%)
Writing library                          : x264 core 157 r2935 545de2f
Encoding settings                        : cabac=1 / ref=4 / deblock=1:-1:-1 / analyse=0x3:0x133 / me=umh / subme=9 / psy=1 / psy_rd=1.00:0.15 / mixed_ref=1 / me_range=16 / chroma_me=1 / trellis=2 / 8x8dct=1 / cqm=0 / deadzone=21,11 / fast_pskip=1 / chroma_qp_offset=-3 / threads=18 / lookahead_threads=2 / sliced_threads=0 / nr=0 / decimate=1 / interlaced=0 / bluray_compat=0 / constrained_intra=0 / bframes=5 / b_pyramid=2 / b_adapt=2 / b_bias=0 / direct=3 / weightb=1 / open_gop=0 / weightp=2 / keyint=240 / keyint_min=24 / scenecut=40 / intra_refresh=0 / rc_lookahead=60 / rc=2pass / mbtree=1 / bitrate=5000 / ratetol=1.0 / qcomp=0.60 / qpmin=0 / qpmax=69 / qpstep=4 / cplxblur=20.0 / qblur=0.5 / vbv_maxrate=62500 / vbv_bufsize=78125 / nal_hrd=none / filler=0 / ip_ratio=1.40 / aq=1:1.00
Language                                 : English
Default                                  : Yes
Forced                                   : No
Color range                              : Limited
Color primaries                          : BT.709
Transfer characteristics                 : BT.709
Matrix coefficients                      : BT.709

Audio #1
ID                                       : 2
Format                                   : AC-3
Format/Info                              : Audio Coding 3
Commercial name                          : Dolby Digital
Codec ID                                 : A_AC3
Duration                                 : 2 h 6 min
Bit rate mode                            : Constant
Bit rate                                 : 448 kb/s
Channel(s)                               : 6 channels
Channel layout                           : L R C LFE Ls Rs
Sampling rate                            : 48.0 kHz
Frame rate                               : 31.250 FPS (1536 SPF)
Compression mode                         : Lossy
Stream size                              : 405 MiB (6%)
Language                                 : English
Service kind                             : Complete Main
Default                                  : No
Forced                                   : No

Audio #2
ID                                       : 3
Format                                   : DTS
Format/Info                              : Digital Theater Systems
Codec ID                                 : A_DTS
Duration                                 : 2 h 6 min
Bit rate mode                            : Constant
Bit rate                                 : 1 510 kb/s
Channel(s)                               : 6 channels
Channel layout                           : C L R Ls Rs LFE
Sampling rate                            : 48.0 kHz
Frame rate                               : 93.750 FPS (512 SPF)
Bit depth                                : 16 bits
Compression mode                         : Lossy
Delay relative to video                  : 10 ms
Stream size                              : 1.33 GiB (22%)
Language                                 : English
Default                                  : Yes
Forced                                   : No

Text
ID                                       : 4
Format                                   : UTF-8
Codec ID                                 : S_TEXT/UTF8
Codec ID/Info                            : UTF-8 Plain Text
Duration                                 : 1 h 55 min
Bit rate                                 : 66 b/s
Count of elements                        : 1531
Stream size                              : 56.3 KiB (0%)
Language                                 : English
Default                                  : No
Forced                                   : No

Menu
00:00:00.000                             : Act of Terrorism
00:06:20.839                             : A Crime Investigation
00:15:32.723                             : Claire Kachever
00:24:59.289                             : Unique Time Constraints
00:30:20.318                             : Snow White
00:38:37.398                             : Who's Watching Her?
00:42:58.075                             : That's Him
00:49:30.467                             : Something Breached the Field
00:55:52.432                             : Branching the Universe
00:59:57.469                             : Out of Range
01:14:15.660                             : Motive
01:20:38.042                             : Four Days Ago
01:29:00.502                             : They'd Never Believe You
01:42:49.413                             : Change of Plans
01:54:41.500                             : Have We Met?
01:58:06.705                             : End Credits

Dedicated to Tony Scott. RIP.
Reply


Possibly Related Threads…
Thread Author Replies Views Last Post
Video [Released] Mortal Kombat (1995) - Open Matte Komposite CORTICALSYSTEMS 10 1,185 2021-11-26, 12:54 AM
Last Post: spoRv
  [Released] Pitch Black (2000) [Directors Cut] Open Matte [VAR] Hybrid Hitcher 2 94 2021-11-08, 05:53 PM
Last Post: Hitcher
  [Released] Riddick (2013) [EXTENDED] Open Matte [VAR] Hybrid Hitcher 3 165 2021-11-07, 03:05 PM
Last Post: dvdmike
  Drive 2011 Open Matte SIUse 3 297 2021-10-29, 06:59 PM
Last Post: Hitcher
  [Released] Showgirls - Remastered Open Matte - Cinema Polish Colek 33 22,111 2021-10-18, 12:31 PM
Last Post: Bilbofett
  The Terminator (1984) Open Matte ilovewaterslides 14 9,654 2021-09-02, 03:33 AM
Last Post: Hakaider
  [No Longer Available] The Fellowship of the Ring Variable Aspect Ratio aka Open Matte PDB 45 18,839 2021-07-06, 04:54 PM
Last Post: robbiseraphin
  [Released] Harry Potter saga - open matte spoRv 374 213,985 2021-07-06, 04:53 PM
Last Post: robbiseraphin
Information The Sword In The Stone Open Matte Original Theatrical Mono 1963 Multiaudio Multisubs. jerryshadoe 84 62,363 2020-12-03, 03:25 PM
Last Post: XanaxTheGreat
  [No Longer Available] Top Gun Open Matte (Quick Project) PDB 74 24,933 2020-10-19, 03:52 PM
Last Post: Inq81

Forum Jump:


Users browsing this thread: 1 Guest(s)