Thread Rating:
  • 0 Vote(s) - 0 Average
  • 1
  • 2
  • 3
  • 4
  • 5
[Released] Pitch Black (2000) [Directors Cut] Open Matte [VAR] Hybrid
#1
When their ship crash-lands on a remote planet,
the marooned passengers soon learn that escaped convict Riddick isn't the only thing they have to fear.
Deadly creatures lurk in the shadows, waiting to attack in the dark,
and the planet is rapidly plunging into the utter blackness of a total eclipse.
With the body count rising, the doomed survivors are forced to turn to Riddick
with his eerie eyes to guide them through the darkness to safety.
With time running out, there's only one rule: Stay in the light.

[Image: 69916]

Hybrid made using the Theatrical Cut Open Matte and Directors Cut BluRay 2.40:1 for extra/extended scenes hence the Variable Aspect Ratio.

Code:
General
Complete name                            : Pitch Black (2000) [Directors Cut] Open Matte [VAR] Hybrid.mkv
Format                                   : Matroska
Format version                           : Version 4
File size                                : 13.2 GiB
Duration                                 : 1 h 51 min
Overall bit rate                         : 16.9 Mb/s
Encoded date                             : UTC 2021-11-08 09:27:06
Writing application                      : mkvmerge v60.0.0 ('Are We Copies?') 64-bit
Writing library                          : libebml v1.4.2 + libmatroska v1.6.4

Video
ID                                       : 1
Format                                   : AVC
Format/Info                              : Advanced Video Codec
Format profile                           : High@L4.1
Format settings                          : CABAC / 4 Ref Frames
Format settings, CABAC                   : Yes
Format settings, Reference frames        : 4 frames
Codec ID                                 : V_MPEG4/ISO/AVC
Duration                                 : 1 h 51 min
Bit rate                                 : 15.0 Mb/s
Width                                    : 1 920 pixels
Height                                   : 1 080 pixels
Display aspect ratio                     : 16:9
Frame rate mode                          : Constant
Frame rate                               : 23.976 (24000/1001) FPS
Color space                              : YUV
Chroma subsampling                       : 4:2:0
Bit depth                                : 8 bits
Scan type                                : Progressive
Bits/(Pixel*Frame)                       : 0.302
Stream size                              : 11.7 GiB (89%)
Writing library                          : x264 core 157 r2935 545de2f
Encoding settings                        : cabac=1 / ref=4 / deblock=1:-1:-1 / analyse=0x3:0x133 / me=umh / subme=9 / psy=1 / psy_rd=1.00:0.15 / mixed_ref=1 / me_range=16 / chroma_me=1 / trellis=2 / 8x8dct=1 / cqm=0 / deadzone=21,11 / fast_pskip=1 / chroma_qp_offset=-3 / threads=18 / lookahead_threads=2 / sliced_threads=0 / nr=0 / decimate=1 / interlaced=0 / bluray_compat=0 / constrained_intra=0 / bframes=5 / b_pyramid=2 / b_adapt=2 / b_bias=0 / direct=3 / weightb=1 / open_gop=0 / weightp=2 / keyint=240 / keyint_min=24 / scenecut=40 / intra_refresh=0 / rc_lookahead=60 / rc=2pass / mbtree=1 / bitrate=15000 / ratetol=1.0 / qcomp=0.60 / qpmin=0 / qpmax=69 / qpstep=4 / cplxblur=20.0 / qblur=0.5 / vbv_maxrate=62500 / vbv_bufsize=78125 / nal_hrd=none / filler=0 / ip_ratio=1.40 / aq=1:1.00
Language                                 : English
Default                                  : Yes
Forced                                   : No
Color range                              : Limited
Color primaries                          : BT.709
Transfer characteristics                 : BT.709
Matrix coefficients                      : BT.709

Audio #1
ID                                       : 2
Format                                   : DTS
Format/Info                              : Digital Theater Systems
Codec ID                                 : A_DTS
Duration                                 : 1 h 51 min
Bit rate mode                            : Constant
Bit rate                                 : 1 509 kb/s
Channel(s)                               : 6 channels
Channel layout                           : C L R Ls Rs LFE
Sampling rate                            : 48.0 kHz
Frame rate                               : 93.750 FPS (512 SPF)
Bit depth                                : 24 bits
Compression mode                         : Lossy
Stream size                              : 1.18 GiB (9%)
Title                                    : English DTS
Language                                 : English
Default                                  : Yes
Forced                                   : No

Audio #2
ID                                       : 3
Format                                   : AC-3
Format/Info                              : Audio Coding 3
Commercial name                          : Dolby Digital
Format settings                          : Dolby Surround
Codec ID                                 : A_AC3
Duration                                 : 1 h 51 min
Bit rate mode                            : Constant
Bit rate                                 : 192 kb/s
Channel(s)                               : 2 channels
Channel layout                           : L R
Sampling rate                            : 48.0 kHz
Frame rate                               : 31.250 FPS (1536 SPF)
Compression mode                         : Lossy
Stream size                              : 154 MiB (1%)
Title                                    : Commentary 1
Language                                 : English
Service kind                             : Complete Main
Default                                  : No
Forced                                   : No

Audio #3
ID                                       : 4
Format                                   : AC-3
Format/Info                              : Audio Coding 3
Commercial name                          : Dolby Digital
Format settings                          : Dolby Surround
Codec ID                                 : A_AC3
Duration                                 : 1 h 51 min
Bit rate mode                            : Constant
Bit rate                                 : 192 kb/s
Channel(s)                               : 2 channels
Channel layout                           : L R
Sampling rate                            : 48.0 kHz
Frame rate                               : 31.250 FPS (1536 SPF)
Compression mode                         : Lossy
Stream size                              : 154 MiB (1%)
Title                                    : Commentary 2
Language                                 : English
Service kind                             : Complete Main
Default                                  : No
Forced                                   : No

Text
ID                                       : 5
Format                                   : UTF-8
Codec ID                                 : S_TEXT/UTF8
Codec ID/Info                            : UTF-8 Plain Text
Duration                                 : 1 h 44 min
Bit rate                                 : 41 b/s
Count of elements                        : 1179
Stream size                              : 31.6 KiB (0%)
Title                                    : ENGLISH SUBTITLES
Language                                 : English
Default                                  : Yes
Forced                                   : No

The Unrated Director´s Cut is 220 sec. longer than the Theatrical Cut (R-rated).

17:39 min. - 18:05 min.
Imam longer explains Fry the religious rites and the march to New Mecca and then shows her his weapon.
length: DC 26 sec. longer.

22:18 min. - 22:23 min.
Shazza looks at the rocks.
length: DC 5 sec. longer.

31:47 min. - 32:25 min.
Fry and Johns have different opinions about Riddick. For Johns, Riddick definitely is the killer who messes around with the group. Fry however wants to pursue his hints and examine the burrow more closely. Here you notice for the first time that Johns is actually an arrogant asshole.
length: DC 38 sec. longer.

39:25 min. - 40:24 min.
The group is worried about the condition of the shuttle. Riddick ironically adds that it would be enough to outstretch the thumb to get off this planet and travel on hitchhiking. To avoid more tensions within the group Johns gives Riddick instructions so he has something to do. After that you see Jack playing with found toys and tools.
length: DC 59 sec. longer.

47:13 min. - 47:48 min.
Conversation between Riddick and Shazza. Shazza gives Riddick a respirator. With that, she wants to apologize to Riddick for the accusations regarding Zeke´s death.
length: DC 35 sec. longer.

48:14 min. - 48:28 min.
In the Theatrical Cut a shot of Riddick, in the DC a scene where he puts on the respirator.
length: 14 sec., DC 12 sec. longer.

55:10 min. - 55:55 min.
Fry doubts if Johns is the proper leader for the group. We get to know that Johns was shot by Riddick and that the bullet still is in his body. That is why he needs the morphine. In the Theatrical Version he is just a junkie.
length: DC 45 sec. longer.
Reply
Thanks given by: stwd4nder2 , interaser , nat , Inq81
#2
You are on a roll Hitcher.
New, low or non-posting members: Please do not post or PM me asking where to get something or what the current status of a project is. Such requests are ignored. Instead, stick around and become a participating member. Thank you.

Reply
Thanks given by:
#3
Yeah, had a week off work and decided to spend some more time learning, editing, and finally releasing my favourites.
Reply
Thanks given by:


Possibly Related Threads…
Thread Author Replies Views Last Post
  [Released] Shaun of the Dead (2004) Open Matte Hitcher 2 63 Yesterday, 01:31 AM
Last Post: CloakedDragon97
Video [Released] Mortal Kombat (1995) - Open Matte Komposite CORTICALSYSTEMS 10 1,263 2021-11-26, 12:54 AM
Last Post: spoRv
  [Released] Riddick (2013) [EXTENDED] Open Matte [VAR] Hybrid Hitcher 3 192 2021-11-07, 03:05 PM
Last Post: dvdmike
  [Released] Déjà Vu (2006) Open Matte Hitcher 0 159 2021-11-04, 12:03 AM
Last Post: Hitcher
Video [Released] French Cancan (1955) (Custom colour & Hybrid audio) mitkrod 3 161 2021-11-03, 03:07 AM
Last Post: mitkrod
  Drive 2011 Open Matte SIUse 3 332 2021-10-29, 06:59 PM
Last Post: Hitcher
  [Released] Showgirls - Remastered Open Matte - Cinema Polish Colek 33 22,264 2021-10-18, 12:31 PM
Last Post: Bilbofett
  The Terminator (1984) Open Matte ilovewaterslides 14 9,749 2021-09-02, 03:33 AM
Last Post: Hakaider
  [No Longer Available] The Fellowship of the Ring Variable Aspect Ratio aka Open Matte PDB 45 18,999 2021-07-06, 04:54 PM
Last Post: robbiseraphin
  [Released] Harry Potter saga - open matte spoRv 374 214,559 2021-07-06, 04:53 PM
Last Post: robbiseraphin

Forum Jump:


Users browsing this thread: 1 Guest(s)