Hello guest, if you like this forum, why don't you register? https://forum.fanres.com/member.php?action=register (December 14, 2021) x


[Released] 

Van Helsing (2004) disc.blue

2 Replies, 186 Views

Van Helsing (2004) disc.blue

Found a Russian DVD: open matte, with bigger image than WEB, and, most important, theatrical colors - master is from a release print, including cigarette burns! Much, MUCH better colors (and contrast) than BD (and other DVDs), I always said the latter had wrong colors, but reading reviews here and there, nobody noted it... are they all color blind?!?

The Russian DVD quality is fair, but it has a geometrical distortion; I managed to fix it, along with the usual basic noise reduction, mild sharpening and at the end the grain plate. In comparison to simple upscale, result was good, but not up to the WEB.

So, I slapped the WEB on top of the upscaled DVD, and it works well everywhere but in few shots they do not align well, so those use the upscaled DVD - we are talking about three minutes out of 130.

Moviefingerprints - top Blu-ray, bottom disc.blue:

[Image: Van-Helsing-moviefingerprint-Blu-ray.jpg]
[Image: Van-Helsing-moviefingerprint-disc-blu.jpg]

http://www.framecompare.com/screenshotco...n/0J21FNNU

DISCLAIMER:

This is a fan restoration project; it was created for criticism, research, and is completely nonprofit,
and should be considered fair use as stated in the Copyright Act of 1976, 17 U.S.C. section 107.

It is not an official product, and it should not be sold nor bought; this is intended for private use and
any public screening is not recommended.

To have this version, you must own the original, unaltered retail release. Please, respect the rights of
the copyright holders and purchase a copy of the original product if you do not own one already.

Technical data

Video track:
  • 2K flat 2000x1080px 23.976fps AV1 21.4mbps average, 40mbps max
Audio tracks:
  • English Cinema DTS 5.1 Opus 512kbps CVBR
  • French 5.1 Opus 384kbps CVBR
  • German 5.1 Opus 384kbps CVBR
  • Italian 5.1 Opus 384kbps CVBR (original first part had problems, fixed here)
  • Spanish 5.1 Opus 384kbps CVBR
  • English commentary #1 2.0 Opus 128kbps CVBR
  • English commentary #2 2.0 Opus 128kbps CVBR
Subtitles:
  • English for main, commentary #1 and #2 tracks
  • French for main, commentary #1 and #2 tracks
  • German for main, commentary #1 and #2 tracks
  • Italian for main, commentary #1 and #2 tracks
  • Spanish for main, commentary #1 and #2 tracks
Chapters:
  • 00:00:00 - It's Alive
  • 00:07:49 - The Vatican's Avenger
  • 00:13:42 - The Order
  • 00:20:14 - Werewolf Hunters
  • 00:23:12 - Welcome to Transylvania
  • 00:33:58 - His Name Is Van Helsing
  • 00:38:22 - Looking for Answers
  • 00:40:34 - Curse of the Werewolf
  • 00:48:41 - Castle Frankenstein
  • 00:53:18 - Dracula's Children
  • 01:02:07 - Old Acquaintances
  • 01:04:31 - Failure
  • 01:08:42 - The Living Painting
  • 01:09:54 - The Frankenstein Monster
  • 01:14:17 - Hell on Wheels
  • 01:18:55 - Mark of the Wolf
  • 01:23:57 - The Monster's Ball
  • 01:29:19 - Van Helsing's Vow
  • 01:31:11 - The Door to Dracula
  • 01:37:30 - The Cure
  • 01:40:34 - Life for My Children
  • 01:43:46 - You Can Go When You're Dead
  • 01:45:56 - The Spawning
  • 01:50:21 - The Only Way
  • 01:55:16 - The Left Hand of God
  • 01:57:08 - Sacrifice
  • 01:58:42 - Reunion
  • 02:02:01 - End Titles
Mediainfo
Code:
General
Unique ID                                : 243059475413820538594448721786589501978 (0xB6DB8D5CC285A496298E015362ED5A1A)
Complete name                            : H:\VanHelsing_2004_FTR-FanMod-Hyb-Reg_S-185_EN-EN_US-PG13_51-OPUS-CDTS_2K-AV1_UP_20220222_SPO_disc.blue.mkv
Format                                   : Matroska
Format version                           : Version 4
File size                                : 22.4 GiB
Duration                                 : 2 h 11 min
Overall bit rate                         : 24.4 Mb/s
Encoded date                             : UTC 2022-02-28 15:16:33
Writing application                      : mkvmerge v65.0.0 ('Too Much') 64-bit
Writing library                          : libebml v1.4.2 + libmatroska v1.6.4

Video
ID                                       : 1
Format                                   : AV1
Format/Info                              : AOMedia Video 1
Format profile                           : [email protected]
Codec ID                                 : V_AV1
Duration                                 : 2 h 11 min
Bit rate                                 : 21.8 Mb/s
Width                                    : 2 000 pixels
Height                                   : 1 080 pixels
Display aspect ratio                     : 1.85:1
Frame rate mode                          : Constant
Frame rate                               : 23.976 (24000/1001) FPS
Color space                              : YUV
Chroma subsampling                       : 4:2:0
Bit depth                                : 8 bits
Bits/(Pixel*Frame)                       : 0.422
Stream size                              : 20.1 GiB (90%)
Title                                    : Van Helsing (2004) disc.blue
Language                                 : English
Default                                  : No
Forced                                   : No
Color range                              : Limited

Audio #1
ID                                       : 2
Format                                   : Opus
Codec ID                                 : A_OPUS
Duration                                 : 2 h 11 min
Bit rate                                 : 516 kb/s
Channel(s)                               : 6 channels
Channel layout                           : L R C Ls Rs Cb LFE
Sampling rate                            : 48.0 kHz
Frame rate                               : 50.000 FPS (960 SPF)
Compression mode                         : Lossy
Stream size                              : 485 MiB (2%)
Title                                    : English 5.1 Cinema DTS
Language                                 : English
Default                                  : Yes
Forced                                   : No

Audio #2
ID                                       : 3
Format                                   : Opus
Codec ID                                 : A_OPUS
Duration                                 : 2 h 11 min
Bit rate                                 : 386 kb/s
Channel(s)                               : 6 channels
Channel layout                           : L R C Ls Rs Cb LFE
Sampling rate                            : 48.0 kHz
Frame rate                               : 50.000 FPS (960 SPF)
Compression mode                         : Lossy
Stream size                              : 363 MiB (2%)
Title                                    : French 5.1
Language                                 : French
Default                                  : Yes
Forced                                   : No

Audio #3
ID                                       : 4
Format                                   : Opus
Codec ID                                 : A_OPUS
Duration                                 : 2 h 11 min
Bit rate                                 : 386 kb/s
Channel(s)                               : 6 channels
Channel layout                           : L R C Ls Rs Cb LFE
Sampling rate                            : 48.0 kHz
Frame rate                               : 50.000 FPS (960 SPF)
Compression mode                         : Lossy
Stream size                              : 363 MiB (2%)
Title                                    : German 5.1
Language                                 : German
Default                                  : Yes
Forced                                   : No

Audio #4
ID                                       : 5
Format                                   : Opus
Codec ID                                 : A_OPUS
Duration                                 : 2 h 11 min
Bit rate                                 : 387 kb/s
Channel(s)                               : 6 channels
Channel layout                           : L R C Ls Rs Cb LFE
Sampling rate                            : 48.0 kHz
Frame rate                               : 50.000 FPS (960 SPF)
Compression mode                         : Lossy
Stream size                              : 364 MiB (2%)
Title                                    : Italian 5.1 (fixed)
Language                                 : Italian
Default                                  : Yes
Forced                                   : No

Audio #5
ID                                       : 6
Format                                   : Opus
Codec ID                                 : A_OPUS
Duration                                 : 2 h 11 min
Bit rate                                 : 387 kb/s
Channel(s)                               : 6 channels
Channel layout                           : L R C Ls Rs Cb LFE
Sampling rate                            : 48.0 kHz
Frame rate                               : 50.000 FPS (960 SPF)
Compression mode                         : Lossy
Stream size                              : 364 MiB (2%)
Title                                    : Spanish 5.1
Language                                 : Spanish
Default                                  : Yes
Forced                                   : No

Audio #6
ID                                       : 7
Format                                   : Opus
Codec ID                                 : A_OPUS
Duration                                 : 2 h 11 min
Bit rate                                 : 128 kb/s
Channel(s)                               : 2 channels
Channel layout                           : L R
Sampling rate                            : 48.0 kHz
Frame rate                               : 50.000 FPS (960 SPF)
Compression mode                         : Lossy
Stream size                              : 121 MiB (1%)
Title                                    : English commentary #1
Language                                 : English
Default                                  : Yes
Forced                                   : No

Audio #7
ID                                       : 8
Format                                   : Opus
Codec ID                                 : A_OPUS
Duration                                 : 2 h 11 min
Bit rate                                 : 128 kb/s
Channel(s)                               : 2 channels
Channel layout                           : L R
Sampling rate                            : 48.0 kHz
Frame rate                               : 50.000 FPS (960 SPF)
Compression mode                         : Lossy
Stream size                              : 121 MiB (1%)
Title                                    : English commentary #2
Language                                 : English
Default                                  : Yes
Forced                                   : No

Text #1
ID                                       : 9
Format                                   : PGS
Muxing mode                              : zlib
Codec ID                                 : S_HDMV/PGS
Codec ID/Info                            : Picture based subtitle format used on BDs/HD-DVDs
Duration                                 : 1 h 58 min
Bit rate                                 : 23.7 kb/s
Count of elements                        : 2021
Stream size                              : 20.2 MiB (0%)
Title                                    : English subtitles
Language                                 : English
Default                                  : Yes
Forced                                   : No

Text #2
ID                                       : 10
Format                                   : PGS
Muxing mode                              : zlib
Codec ID                                 : S_HDMV/PGS
Codec ID/Info                            : Picture based subtitle format used on BDs/HD-DVDs
Duration                                 : 2 h 1 min
Bit rate                                 : 18.8 kb/s
Count of elements                        : 1874
Stream size                              : 16.4 MiB (0%)
Title                                    : French subtitles
Language                                 : French
Default                                  : Yes
Forced                                   : No

Text #3
ID                                       : 11
Format                                   : PGS
Muxing mode                              : zlib
Codec ID                                 : S_HDMV/PGS
Codec ID/Info                            : Picture based subtitle format used on BDs/HD-DVDs
Duration                                 : 2 h 1 min
Bit rate                                 : 25.9 kb/s
Count of elements                        : 1876
Stream size                              : 22.5 MiB (0%)
Title                                    : German subtitles
Language                                 : German
Default                                  : Yes
Forced                                   : No

Text #4
ID                                       : 12
Format                                   : PGS
Muxing mode                              : zlib
Codec ID                                 : S_HDMV/PGS
Codec ID/Info                            : Picture based subtitle format used on BDs/HD-DVDs
Duration                                 : 2 h 1 min
Bit rate                                 : 22.3 kb/s
Count of elements                        : 1878
Stream size                              : 19.3 MiB (0%)
Title                                    : Italian subtitles
Language                                 : Italian
Default                                  : Yes
Forced                                   : No

Text #5
ID                                       : 13
Format                                   : PGS
Muxing mode                              : zlib
Codec ID                                 : S_HDMV/PGS
Codec ID/Info                            : Picture based subtitle format used on BDs/HD-DVDs
Duration                                 : 2 h 1 min
Bit rate                                 : 20.5 kb/s
Count of elements                        : 1878
Stream size                              : 17.8 MiB (0%)
Title                                    : Spanish subtitles
Language                                 : Spanish
Default                                  : Yes
Forced                                   : No

Text #6
ID                                       : 14
Format                                   : PGS
Muxing mode                              : zlib
Codec ID                                 : S_HDMV/PGS
Codec ID/Info                            : Picture based subtitle format used on BDs/HD-DVDs
Duration                                 : 2 h 2 min
Bit rate                                 : 82.5 kb/s
Count of elements                        : 4496
Stream size                              : 72.1 MiB (0%)
Title                                    : English commentary #1 subtitles
Language                                 : English
Default                                  : Yes
Forced                                   : No

Text #7
ID                                       : 15
Format                                   : PGS
Muxing mode                              : zlib
Codec ID                                 : S_HDMV/PGS
Codec ID/Info                            : Picture based subtitle format used on BDs/HD-DVDs
Duration                                 : 2 h 11 min
Bit rate                                 : 65.2 kb/s
Count of elements                        : 4501
Stream size                              : 61.3 MiB (0%)
Title                                    : French commentary #1 subtitles
Language                                 : French
Default                                  : Yes
Forced                                   : No

Text #8
ID                                       : 16
Format                                   : PGS
Muxing mode                              : zlib
Codec ID                                 : S_HDMV/PGS
Codec ID/Info                            : Picture based subtitle format used on BDs/HD-DVDs
Duration                                 : 2 h 11 min
Bit rate                                 : 79.6 kb/s
Count of elements                        : 4506
Stream size                              : 74.8 MiB (0%)
Title                                    : German commentary #1 subtitles
Language                                 : German
Default                                  : Yes
Forced                                   : No

Text #9
ID                                       : 17
Format                                   : PGS
Muxing mode                              : zlib
Codec ID                                 : S_HDMV/PGS
Codec ID/Info                            : Picture based subtitle format used on BDs/HD-DVDs
Duration                                 : 2 h 11 min
Bit rate                                 : 64.6 kb/s
Count of elements                        : 4498
Stream size                              : 60.7 MiB (0%)
Title                                    : Italian commentary #1 subtitles
Language                                 : Italian
Default                                  : Yes
Forced                                   : No

Text #10
ID                                       : 18
Format                                   : PGS
Muxing mode                              : zlib
Codec ID                                 : S_HDMV/PGS
Codec ID/Info                            : Picture based subtitle format used on BDs/HD-DVDs
Duration                                 : 2 h 11 min
Bit rate                                 : 70.9 kb/s
Count of elements                        : 4506
Stream size                              : 66.6 MiB (0%)
Title                                    : Spanish commentary #1 subtitles
Language                                 : Spanish
Default                                  : Yes
Forced                                   : No

Text #11
ID                                       : 19
Format                                   : PGS
Muxing mode                              : zlib
Codec ID                                 : S_HDMV/PGS
Codec ID/Info                            : Picture based subtitle format used on BDs/HD-DVDs
Duration                                 : 2 h 1 min
Bit rate                                 : 57.2 kb/s
Count of elements                        : 3959
Stream size                              : 49.7 MiB (0%)
Title                                    : English commentary #2 subtitles
Language                                 : English
Default                                  : Yes
Forced                                   : No

Text #12
ID                                       : 20
Format                                   : PGS
Muxing mode                              : zlib
Codec ID                                 : S_HDMV/PGS
Codec ID/Info                            : Picture based subtitle format used on BDs/HD-DVDs
Duration                                 : 2 h 2 min
Bit rate                                 : 52.2 kb/s
Count of elements                        : 3930
Stream size                              : 45.6 MiB (0%)
Title                                    : French commentary #2 subtitles
Language                                 : French
Default                                  : Yes
Forced                                   : No

Text #13
ID                                       : 21
Format                                   : PGS
Muxing mode                              : zlib
Codec ID                                 : S_HDMV/PGS
Codec ID/Info                            : Picture based subtitle format used on BDs/HD-DVDs
Duration                                 : 2 h 2 min
Bit rate                                 : 57.5 kb/s
Count of elements                        : 3964
Stream size                              : 50.3 MiB (0%)
Title                                    : German commentary #2 subtitles
Language                                 : German
Default                                  : Yes
Forced                                   : No

Text #14
ID                                       : 22
Format                                   : PGS
Muxing mode                              : zlib
Codec ID                                 : S_HDMV/PGS
Codec ID/Info                            : Picture based subtitle format used on BDs/HD-DVDs
Duration                                 : 2 h 2 min
Bit rate                                 : 51.9 kb/s
Count of elements                        : 3964
Stream size                              : 45.3 MiB (0%)
Title                                    : Italian commentary #2 subtitles
Language                                 : Italian
Default                                  : Yes
Forced                                   : No

Text #15
ID                                       : 23
Format                                   : PGS
Muxing mode                              : zlib
Codec ID                                 : S_HDMV/PGS
Codec ID/Info                            : Picture based subtitle format used on BDs/HD-DVDs
Duration                                 : 2 h 2 min
Bit rate                                 : 54.0 kb/s
Count of elements                        : 3963
Stream size                              : 47.1 MiB (0%)
Title                                    : Spansih commentary #2 subtitles
Language                                 : Spanish
Default                                  : Yes
Forced                                   : No

Menu
00:00:00.000                             : :It's Alive
00:07:49.218                             : :The Vatican's Avenger
00:13:42.613                             : :The Order
00:20:14.504                             : :Werewolf Hunters
00:23:12.724                             : :Welcome to Transylvania
00:33:58.036                             : :His Name Is Van Helsing
00:38:22.258                             : :Looking for Answers
00:40:34.265                             : :Curse of the Werewolf
00:48:41.793                             : :Castle Frankenstein
00:53:18.862                             : :Dracula's Children
01:02:07.056                             : :Old Acquaintances
01:04:31.784                             : :Failure
01:08:42.952                             : :The Living Painting
01:09:54.982                             : :The Frankenstein Monster
01:14:17.703                             : :Hell on Wheels
01:18:55.313                             : :Mark of the Wolf
01:23:57.866                             : :The Monster's Ball
01:29:19.103                             : :Van Helsing's Vow
01:31:11.340                             : :The Door to Dracula
01:37:30.970                             : :The Cure
01:40:34.528                             : :Life for My Children
01:43:46.345                             : :You Can Go When You're Dead
01:45:56.808                             : :The Spawning
01:50:21.197                             : :The Only Way
01:55:16.075                             : :The Left Hand of God
01:57:08.396                             : :Sacrifice
01:58:42.240                             : :Reunion
02:02:01.188                             : :End Titles
HASH
Code:
f2704f7b92fe322f251af830f7b71c2c5de034d4
Special thanks to:
  • notPaul for finding errors in the pre-release version
  • stwd4nder2 for the Cinema DTS track level correction

If you like this project, please seed it!
Sadly my projects are lost due to an HDD crash... Sad
Fundamental Collection | Vimeo channel | My blog
Congratulations spoRv!

I'd be very much interested in checking it out! Thanks a lot!
(This post was last modified: 2022-03-02, 09:21 AM by BDgeek.)
Hidden Content
You must register or login to view this content.
Sadly my projects are lost due to an HDD crash... Sad
Fundamental Collection | Vimeo channel | My blog

Possibly Related Threads…
Thread Author Replies Views Last Post
  [Released] Werewolf by Night (2022) disc.blue spoRv 0 73 2022-11-14, 09:51 AM
Last Post: spoRv
  [Released] Shaun of the Dead (2004) Open Matte Hitcher 2 247 2021-12-07, 01:31 AM
Last Post: CloakedDragon97
  [Released] Twin Peaks Fire Walk With Me (1992) Extended Blue Rose Cut JackForrester 0 588 2021-09-05, 03:03 AM
Last Post: JackForrester
  [Released] The Chronicles Of Riddick (2004)[Fundamental Collection™ #011] spoRv 16 12,225 2020-04-21, 12:03 AM
Last Post: Kurtos
  [Released] AVP: Alien vs. Predator (2004) [Fundamental Collection™ #012] spoRv 5 5,235 2017-05-19, 01:15 PM
Last Post: Jetrell Fo



Users browsing this thread: 1 Guest(s)