Hello guest, if you like this forum, why don't you register? https://forum.fanres.com/member.php?action=register (December 14, 2021) x


The Nightmare Before Christmas audio from 35mm scan

2 Replies, 259 Views

There's a 35m scan of The Nightmare Before Christmas online. If anyone wants the stereo audio from it to sync it up to the bluray, I can grab it for them. Does anyone know if this was 5.1 when it was in theaters originally? I'm assuming the audio on the bluray is the track used for the 3D theatrical re-release.

General

Unique ID                                : 64375619929596748989707303955415704265 (0x306E4B1CFD3CBC32D43046B6D79C22C9)
Complete name                            : The Nightmare Before Christmas 1993 Thunderbean Scan Open Matte 720p BluRay FLAC2.0 x264-R40.mkv
Format                                   : Matroska
Format version                           : Version 4
File size                                : 3.81 GiB
Duration                                 : 1 h 16 min
Overall bit rate mode                    : Variable
Overall bit rate                         : 7 162 kb/s
Movie name                               : The Nightmare Before Christmas (1993) [Thunderbean Scan Open Matte]
Encoded date                             : UTC 2022-05-20 16:53:25
Writing application                      : mkvmerge v67.0.0 ('Under Stars'[Image: wink.gif] 64-bit
Writing library                          : libebml v1.4.2 + libmatroska v1.6.4

Video
ID                                       : 1
Format                                   : AVC
Format/Info                              : Advanced Video Codec
Format profile                           : [email protected]
Format settings                          : CABAC / 9 Ref Frames
Format settings, CABAC                   : Yes
Format settings, Reference frames        : 9 frames
Codec ID                                 : V_MPEG4/ISO/AVC
Duration                                 : 1 h 16 min
Bit rate                                 : 6 466 kb/s
Width                                    : 1 224 pixels
Height                                   : 720 pixels
Display aspect ratio                     : 1.700
Frame rate mode                          : Constant
Frame rate                               : 23.976 (24000/1001) FPS
Color space                              : YUV
Chroma subsampling                       : 4:2:0
Bit depth                                : 8 bits
Scan type                                : Progressive
Bits/(Pixel*Frame)                       : 0.306
Stream size                              : 3.44 GiB (90%)
Writing library                          : x264 core 164 r3094+49M 0246926 devel [(8 & 10)[email protected] X86_64]
Encoding settings                        : cabac=1 / ref=9 / deblock=1:-3:-3 / analyse=0x3:0x133 / me=umh / subme=11 / psy=1 / fade_compensate=0.00 / psy_rd=1.15:0.05 / mixed_ref=1 / me_range=24 / chroma_me=1 / trellis=2 / 8x8dct=1 / cqm=0 / deadzone=21,11 / fast_pskip=0 / chroma_qp_offset=-3 / threads=22 / lookahead_threads=3 / sliced_threads=0 / nr=0 / decimate=0 / interlaced=0 / bluray_compat=0 / constrained_intra=0 / fgo=0 / bframes=8 / b_pyramid=2 / b_adapt=2 / b_bias=0 / direct=3 / weightb=1 / open_gop=0 / weightp=2 / keyint=250 / keyint_min=23 / scenecut=40 / intra_refresh=0 / rc=crf / mbtree=0 / crf=19.0000 / qcomp=0.70 / qpmin=10:10:10 / qpmax=51:51:51 / qpstep=4 / ip_ratio=1.40 / pb_ratio=1.30 / aq=1:0.80 / aq-sensitivity=10.00 / aq-factor=1.00:1.00:1.00 / aq2=0 / aq3=0
Language                                 : English
Default                                  : Yes
Forced                                   : No
Color range                              : Limited
Matrix coefficients                      : BT.709

Audio
ID                                       : 2
Format                                   : FLAC
Format/Info                              : Free Lossless Audio Codec
Codec ID                                 : A_FLAC
Duration                                 : 1 h 16 min
Bit rate mode                            : Variable
Bit rate                                 : 694 kb/s
Channel(s)                               : 2 channels
Channel layout                           : L R
Sampling rate                            : 48.0 kHz
Frame rate                               : 10.417 FPS (4608 SPF)
Bit depth                                : 16 bits
Compression mode                         : Lossless
Stream size                              : 378 MiB (10%)
Writing library                          : Lavf58.45.100
Language                                 : English
Default                                  : Yes
Forced                                   : No
Credits only show Dolby Stereo, so the optical is most likely the only theatrical track. Would be curious to see how it sounds compared to the LD. I'd assume the LD probably sounds better, but it could be like the Aladdin 35mm scan where the optical actually sounds really good and better then the LD.
Are you sure it's ok to discuss this particular 35mm scan in the public forum?

In any case I already synced the optical track to the UHD for my own use. Then I got hold of the LD track and found it superior so I synced that also. PM me if you need the LD sync but I won't share the optical sync due to the rules surrounding these scans.
(This post was last modified: 2022-05-22, 06:13 PM by Turisu.)

Possibly Related Threads…
Thread Author Replies Views Last Post
  [Request] Highlander US Theatrical Cut LD Audio kidjupiter92 0 23 2023-01-21, 01:37 AM
Last Post: kidjupiter92
  [Request] Citizen Kane Image LD Audio FrankT 2 1,270 2022-08-30, 06:21 PM
Last Post: wilcof
  [Help] How to fill in gaps from LD audio due to missing frames? plisskin 22 497 2022-08-27, 04:33 PM
Last Post: plisskin
  [Request] The Shawshank Redemption (1994) LD Audio Onti 14 387 2022-05-14, 09:51 PM
Last Post: BDgeek
  [Request] Buck Rogers 25th Century LD audio Wisp of Smoke 0 89 2022-01-03, 11:58 PM
Last Post: Wisp of Smoke
  Disney's Tarzan (1999) Audio Track Doctor M 7 248 2021-12-29, 02:37 PM
Last Post: Doctor M
  [Request] Hudson Hawk (1991) - Fixed lossless audio from US BD *UPDATE* bendermac 17 681 2021-12-27, 07:21 PM
Last Post: bendermac
  [Request] Anatomy of a Murder LD audio xwang3633 1 513 2021-12-14, 02:20 AM
Last Post: TheLoon
  Death Wish Laserdisc Audio alleycat 1 184 2021-12-02, 01:39 AM
Last Post: wongfeihung
Question [Request] Crocodile Dundee (1986) Australian Version VHS audio jerryshadoe 24 14,575 2021-11-21, 07:49 PM
Last Post: karbre



Users browsing this thread: 1 Guest(s)