Thread Rating:
  • 0 Vote(s) - 0 Average
  • 1
  • 2
  • 3
  • 4
  • 5
[proposal]Robin Hood - Prince of Thieves (1991) - Theatrical Cut
#31
[Image: MP-260-the-big-sleep-classic-vintage-movie-poster.jpg]

Big Grin
Reply
Thanks given by:
#32
[Image: maxresdefault.jpg]
Fundamental collection thread | Vimeo channel | My personal blog
Reply
Thanks given by:
#33
Finally I managed to capture the long version completely flawless.
If this project is somehow rising from the dead again I'm happy to provide the untouched Transport Stream.

General
ID                                       : 187 (0xBB)
Complete name                            : Sky_Cinema_Action_HD_Robin_Hood.ts
Format                                   : MPEG-TS
File size                                : 7.51 GiB
Duration                                 : 2h 28mn
Overall bit rate mode                    : Variable
Overall bit rate                         : 7 231 Kbps

Video
ID                                       : 767 (0x2FF)
Menu ID                                  : 1000 (0x3E8)
Format                                   : AVC
Format/Info                              : Advanced Video Codec
Format profile                           : High@L4
Format settings                          : CABAC / 4 Ref Frames
Format settings, CABAC                   : Yes
Format settings, ReFrames                : 4 frames
Codec ID                                 : 27
Duration                                 : 2h 28mn
Bit rate                                 : 6 291 Kbps
Width                                    : 1 920 pixels
Height                                   : 1 080 pixels
Display aspect ratio                     : 16:9
Frame rate                               : 25.000 fps
Standard                                 : Component
Color space                              : YUV
Chroma subsampling                       : 4:2:0
Bit depth                                : 8 bits
Scan type                                : MBAFF
Scan type, store method                  : Interleaved fields
Scan order                               : Top Field First
Bits/(Pixel*Frame)                       : 0.121
Stream size                              : 6.53 GiB (87%)
Color range                              : Limited
Color primaries                          : BT.709
Transfer characteristics                 : BT.709
Matrix coefficients                      : BT.709

Audio #1
ID                                       : 771 (0x303)
Menu ID                                  : 1000 (0x3E8)
Format                                   : AC-3
Format/Info                              : Audio Coding 3
Codec ID                                 : 6
Duration                                 : 2h 28mn
Bit rate mode                            : Constant
Bit rate                                 : 384 Kbps
Channel(s)                               : 6 channels
Channel positions                        : Front: L C R, Side: L R, LFE
Sampling rate                            : 48.0 KHz
Frame rate                               : 31.250 fps (1536 SPF)
Bit depth                                : 16 bits
Compression mode                         : Lossy
Delay relative to video                  : -55ms
Stream size                              : 408 MiB (5%)
Language                                 : German
Service kind                             : Complete Main

Audio #2
ID                                       : 772 (0x304)
Menu ID                                  : 1000 (0x3E8)
Format                                   : AC-3
Format/Info                              : Audio Coding 3
Codec ID                                 : 6
Duration                                 : 2h 28mn
Bit rate mode                            : Constant
Bit rate                                 : 192 Kbps
Channel(s)                               : 2 channels
Channel positions                        : Front: L R
Sampling rate                            : 48.0 KHz
Frame rate                               : 31.250 fps (1536 SPF)
Bit depth                                : 16 bits
Compression mode                         : Lossy
Delay relative to video                  : 7ms
Stream size                              : 204 MiB (3%)
Language                                 : English
Service kind                             : Complete Main
Reply
Thanks given by:
#34
Thousand open projects, but always ready to make it - sooner or later - so, even if we need the TC, a copy of the DC could always be useful! Ok
Fundamental collection thread | Vimeo channel | My personal blog
Reply
Thanks given by:
#35
I don't think Ive ever sat through the whole of the DC.
At that I don't think Ive watched the TC uncensored! (I live in the U.K).

I loved the film back then and would love to revisit.
Reply
Thanks given by:
#36
Personally I prefer the long version, simply because it gives us some more of Alan Rickmann's stellar acting.
Unfortunately for all german fans they had to re-dub the whole movie and the result, especially Rickmann's new dubbing voice, completely ruined it.
Reply
Thanks given by:
#37
[Image: Robin_Hood_UAR_seriously.jpg]
"Robin Hood in UAR? Seriously? "

(hint: nope - at least, not until I could find a second source to get rid of the TV logo of the fullscreen version)
Fundamental collection thread | Vimeo channel | My personal blog
Reply
Thanks given by:
#38
Another project I would be interested in, though I am still not sure about the whole UAR thing
Reply
Thanks given by:
#39
I made a recording last night on 6ter : theatrical cut apparently, 2 commercial breaks (right in the middle of a scene, those idiots), one logo top right corner, and a pop-up as a reminder of what the program is after each break.

[Image: dpLxw.png]

[Image: NNnlg.png]

[Image: oxN5J.png]
Reply
Thanks given by:
#40
Definitely be interested in this.
Reply
Thanks given by:


Possibly Related Threads...
Thread Author Replies Views Last Post
  [request] Highlander US Theatrical Cut Booshman 58 18,111 2019-01-06, 11:39 PM
Last Post: revstevens
  Beauty and the Beast (1991) December 2018 ABC Recording 44rh1n 17 577 2018-12-28, 02:11 PM
Last Post: spoRv
  [proposal] Mad Max Regrade PDB 12 5,059 2018-12-13, 03:54 AM
Last Post: marin888
  [proposal]The Abyss (1989) BD spoRv 99 35,127 2018-11-26, 11:51 AM
Last Post: Beber
  [request] Hellboy Theatrical Cut Booshman 20 7,153 2018-10-24, 07:49 AM
Last Post: Booshman
  Looking for "The Terminator" (1984) theatrical color grading Evit 123 32,951 2018-04-20, 03:50 AM
Last Post: Dek Rollins
  [proposal] Robocop - Theatrical Cut alexpeden2000 48 13,855 2018-04-03, 01:55 AM
Last Post: crissrudd4554
  Cast a Deadly Spell (1991) Doctor M 2 668 2018-02-18, 08:29 AM
Last Post: Doctor M
  [proposal] 007 Purist Redux captainsolo 51 16,274 2018-02-17, 02:04 PM
Last Post: Stamper
  [proposal] The Warriors Theatrical alexpeden2000 40 10,899 2018-02-02, 04:04 PM
Last Post: X5gb

Forum Jump:


Users browsing this thread: 1 Guest(s)