Hello guest, if you like this forum, why don't you register? https://forum.fanres.com/member.php?action=register (December 14, 2021) x


The Star Beast (Doctor Who) in 4KHDR w/ 5.1 & 2.0 mixes

0 Replies, 921 Views

Here is The Star Beast in 4KHDR using the Disney+ version as a source for the video.

The soundtracks are in 5.1 (sourced from Blu-ray), and a not-so-great stereo mix from the iPlayer version of the episode. Even the 5.1 mix sounds off to me personally, the whole release of these episodes has been very disappointing. But this is the best way of watching it that I can come up with (without the usage of AI!)

Video
ID                                      : 1
Format                                  : HEVC
Format/Info                              : High Efficiency Video Coding
Format profile                          : Main 10@L5@High
Codec ID                                : V_MPEGH/ISO/HEVC
Duration                                : 56 min 58 s
Bit rate                                : 15.8 Mb/s
Width                                    : 3 840 pixels
Height                                  : 2 160 pixels
Display aspect ratio                    : 16:9
Frame rate mode                          : Constant
Frame rate                              : 25.000 FPS
Color space                              : YUV
Chroma subsampling                      : 4:2:0
Bit depth                                : 10 bits
Bits/(Pixel*Frame)                      : 0.076
Stream size                              : 6.28 GiB (87%)
Writing library                          : H.265 10-bit - NVIDIA
Default                                  : Yes
Forced                                  : No
Color range                              : Limited
Color primaries                          : BT.2020
Transfer characteristics                : PQ
Matrix coefficients                      : BT.2020 non-constant

Audio #1
ID                                      : 2
ID in the original source medium        : 4352 (0x1100)
Format                                  : DTS XLL
Format/Info                              : Digital Theater Systems
Commercial name                          : DTS-HD Master Audio
Codec ID                                : A_DTS
Duration                                : 56 min 55 s
Bit rate mode                            : Variable
Bit rate                                : 2 050 kb/s
Channel(s)                              : 6 channels
Channel layout                          : C L R Ls Rs LFE
Sampling rate                            : 48.0 kHz
Frame rate                              : 93.750 FPS (512 SPF)
Bit depth                                : 16 bits
Compression mode                        : Lossless
Stream size                              : 835 MiB (11%)
Title                                    : 5.1 (Blu-ray)
Language                                : English
Default                                  : Yes
Forced                                  : No
Original source medium                  : Blu-ray

Audio #2
ID                                      : 3
Format                                  : AAC LC
Format/Info                              : Advanced Audio Codec Low Complexity
Codec ID                                : A_AAC-2
Duration                                : 56 min 58 s
Bit rate                                : 192 kb/s
Channel(s)                              : 2 channels
Channel layout                          : L R
Sampling rate                            : 48.0 kHz
Frame rate                              : 46.875 FPS (1024 SPF)
Compression mode                        : Lossy
Stream size                              : 79.8 MiB (1%)
Title                                    : 2.0 (iPlayer)
Default                                  : No
Forced                                  : No

Text
ID                                      : 4
ID in the original source medium        : 4608 (0x1200)
Format                                  : PGS
Muxing mode                              : zlib
Codec ID                                : S_HDMV/PGS
Codec ID/Info                            : Picture based subtitle format used on BDs/HD-DVDs
Duration                                : 55 min 50 s
Bit rate                                : 54.4 kb/s
Frame rate                              : 0.646 FPS
Count of elements                        : 2165
Stream size                              : 21.7 MiB (0%)
Language                                : English
Default                                  : No
Forced                                  : No
Original source medium                  : Blu-ray

It is possible the 2.0 track might go slightly out of sync for this episode. The video of the iPlayer version seems to be cut a little differently, so let me know if the audio goes out of sync. I'm not entirely sure what I can do about it but I can try.

PM me for a link.


Attached Files Thumbnail(s)
   

Possibly Related Threads…
Thread Author Replies Views Last Post
Video Star Trek: The Motion Picture - Special Longer Version HD Recreation TheLoon 50 14,260 2024-03-15, 11:19 PM
Last Post: Cinephile
  The Giggle (Doctor Who) in 4KHDR w/ 5.1 & 2.0 mixes xZempty_ 0 82 2024-01-03, 02:24 AM
Last Post: xZempty_
  Wild Blue Yonder (Doctor Who) in 4KHDR w/ 5.1 & 2.0 mixes xZempty_ 0 73 2024-01-01, 03:40 AM
Last Post: xZempty_
  Disney's Beauty and the Beast [spoRv] spoRv 43 35,574 2022-04-09, 08:09 PM
Last Post: Darth Telly
  Star Trek: The Motion Picture - Director's Edition HD Recreation (Version 3 out now) iguanaclerk 90 46,481 2022-02-13, 05:50 PM
Last Post: iguanaclerk
  [No Longer Available] Star Trek II The Wrath of Khan Theatrical Cut Sky HDTV PDB 3 932 2022-01-08, 10:51 PM
Last Post: King goal
  Star Trek: The Motion Picture (1979) - theatrical reconstruction jonno 14 8,197 2021-08-18, 05:21 PM
Last Post: pahuffman
  Star Wars: Episode II- Attack of the Clones (2002): IMAX Cut Reconstruction The Aluminum Falcon 5 6,131 2021-06-14, 05:10 PM
Last Post: Stamper
  [No Longer Available] Star Trek VI 2.00 Theatrical Cut (Project CRT #3) PDB 14 4,855 2020-12-09, 01:56 PM
Last Post: Bigrob
  Star Wars laserdisc preservations althor1138 17 8,927 2019-04-10, 10:53 PM
Last Post: spoRv



Users browsing this thread: 1 Guest(s)