Hello guest, if you like this forum, why don't you register? https://forum.fanres.com/member.php?action=register (December 14, 2021) x


[Request] Star Trek 2 (Sky Broadcast)

31 Replies, 19191 Views

So I'd do this one myself if I had the broadcast. Did someone ever convert the Sky HDTV broadcast of st2 to 1080/24p and sync the ld pcm track?

For those not in the know, the U.K. Sat broadcast of st2 had colors closer to release prints then the blu-ray which was shifted to a more blue look. There is a big discussion about over on the ot if you want to catch up
FYI

http://trekcore.com/blog/2016/03/nichola...uhd-plans/

I'd wait if I were you. I was working on Khan myself but gave up when I saw the announcement. Meyer is said to be involved, and I'm quietly confident that the colors will be better than those on the existing BD. Moreover, we should receive the theatrical cut and the director's cut with same color-timing.
If it's this one, I have it. Smile

General
ID : 2033 (0x7F1)
Complete name : G:\Blu-ray\Star Trek\ST.2.The.Wrath.Of.Khan.1080p.h264.dd51.ts
Format : MPEG-TS
File size : 15.5 GiB
Duration : 1h 51mn
Overall bit rate mode : Variable
Overall bit rate : 19.9 Mbps

Video
ID : 513 (0x201)
Menu ID : 3862 (0xF16)
Format : AVC
Format/Info : Advanced Video Codec
Format version : Version 2
Format profile : [email protected]
Format settings, CABAC : Yes
Format settings, ReFrames : 2 frames
Format settings, picture structure : Frame
Codec ID : 27
Duration : 1h 51mn
Bit rate : 18.6 Mbps
Width : 1 920 pixels
Height : 1 088 pixels
Display aspect ratio : 16:9
Frame rate : 25.000 fps
Color space : YUV
Chroma subsampling : 4:2:0
Bit depth : 8 bits
Scan type : Interlaced
Scan type, store method : Interleaved fields
Scan order : Top Field First
Bits/(Pixel*Frame) : 0.355
Stream size : 14.5 GiB (93%)
Encryption : NDS Videoguard 1/2
Color range : Full
Color primaries : BT.709
Transfer characteristics : BT.709
Matrix coefficients : BT.709

Audio
ID : 661 (0x295)
Menu ID : 3862 (0xF16)
Format : AC-3
Format/Info : Audio Coding 3
Mode extension : CM (complete main)
Format settings, Endianness : Big
Codec ID : 6
Duration : 1h 51mn
Bit rate mode : Constant
Bit rate : 384 Kbps
Channel(s) : 6 channels
Channel positions : Front: L C R, Side: L R, LFE
Sampling rate : 48.0 KHz
Frame rate : 31.250 fps (1536 spf)
Compression mode : Lossy
Delay relative to video : -896ms
Stream size : 307 MiB (2%)
Language : English
Encryption : NDS Videoguard 1/2

Menu
ID : 258 (0x102)
Menu ID : 3862 (0xF16)
List : 513 (0x201) (AVC) / 661 (0x295) (AC-3, English)
Language : / English
The broadcast is the DC, so the PCM would have to be patched with audio from the R1 DVD.
Thanks Chew and Jetrell. Did Meyer have anything to do with the bd or was that all paramount?

Still a 1080/24p copy of the dc might be nice
Sounds Like an interesting project :-)

Just want to offer my services for the authoring and any seamless branching that might need to be done.

If the guys wanting the work done can make the Video Blu-ray compliant, x264, Progressive, 23.976fps or 24fps, High Level 4.1 1080p or 720p whichever I assume 1080p and Sync the audio to the video, then I can work with it no problem

For seamless branching the Video and Audio would need to be split into Clips with Video and Audio synced and running order stipulated all BD Compliant and can be done :-)

All up to the guys but here if needed

Thanks
(2016-03-26, 08:53 PM)PDB Wrote: Did Meyer have anything to do with the bd or was that all paramount?

I don't know if Meyer was involved in the color-timing of the existing BD, but I doubt it.
I've actually yet to see TWOK... but I'd love to see it with its original colours! Were the other films any better on Sky?
The other films were pretty decent, as far as I could see. I enjoy watching the Sky rips.
I'll have to check them out if I find them.

Possibly Related Threads…
Thread Author Replies Views Last Post
  [Request] Dead & Buried (1981) AVCO Embassy Pictures logo Onti 1 93 2023-01-05, 06:42 AM
Last Post: The Griff
  [Request] The Big Blue - US Theatrical Cut Bigrob 14 9,629 2022-09-05, 08:35 PM
Last Post: Hulky
  (Request) The Shining VHS Rip CloakedDragon97 2 192 2022-06-27, 04:24 AM
Last Post: narth
  [request] Hellboy Theatrical Cut Booshman 21 14,612 2022-03-16, 10:10 PM
Last Post: Red41804
  [Request] Halloween (1978) Criterion Laserdisc Rip kidjupiter92 6 352 2022-01-02, 09:25 AM
Last Post: kidjupiter92
  [Request] JFK (1991) [Theatrical Cut] Kyaneos 15 11,209 2021-11-26, 12:13 AM
Last Post: Kyaneos
  [Request] Babes in Toyland (1986) - 1986 US TV Broadcast Version Reconstruction in HD James76 2 263 2021-10-30, 12:46 AM
Last Post: James76
  [request] The Thing From Another World oh_riginal 12 6,615 2021-09-22, 07:44 PM
Last Post: captainsolo
  request booshan'e superman IV international cut humie99 13 2,725 2021-09-03, 04:38 PM
Last Post: Booshman
  Beyond the Poseidon Adventure 1981 Extended Television Broadcast simpjake1999 1 507 2021-06-14, 05:19 AM
Last Post: Greathall75



Users browsing this thread: 1 Guest(s)