Thread Rating:
  • 0 Vote(s) - 0 Average
  • 1
  • 2
  • 3
  • 4
  • 5
The Lighthorsemen: Director's Cut [Laserdisc sourced + extras]
#1
Currently up on MySpleen, Karagarga, Cinemageddon and will go up on Cinematik when their uploads open up soon. If there are other places you think this might be appreciated, either let me know, or upload it yourself.

[Image: 957_E4071_E431_4031_B5_A3_E44458_E26_C4_A.jpg]
[Image: 2978_BD8_E_51_E3_43_F0_B25_D_53100_CFA652_F.jpg]
[Image: 138_F36_A5_99_E1_4_EC8_BC9_B_4_D43301_F1153.jpg]
[Image: 82_CFAD37_AD8_C_4369_8_A39_50_C5022_F58_BC.jpg]
[Image: Lighhorsemen1.png]
[Image: Lighhorsemen_2.png]
[Image: Lighhorsemen_3.png]
[Image: Lighhorsemen_4.png]
[Image: 77_C8_B279_CDE3_4491_8_DB7_54_DCF895_A561.jpg]
[Image: 305_F5_A18_A813_4_AB6_AB9_F_BE03_C8733_F40.jpg]
[Image: 9243_A1_C4_5112_4_EDC_9508_69_B2_F06_E93_C1.jpg]
[Image: BE72804_B_A06_C_4042_8885_A83_FEB8_FC69_B.jpg]
[Image: Lighhorsemen_5.png]
[Image: Lighhorsemen_6.png]
[Image: 1_BB01459_22_A8_444_C_98_DD_FE1455_AE510_F.jpg]
[Image: 9_FBF4027_A574_4015_91_D9_EDA861825324.jpg]
[Image: music_cues_1.png]
[Image: music_cues_2.png]



While it makes sense that there would be little to no US fanfare for The Lighthorsemen (1987), an Australian film about historical Australian war heroes, what's difficult to understand is why this film, which has been released in Australia, Germany, and a number of other countries, on both DVD and Blu-ray, has never been available in both widescreen and in its director's cut. You could get the director's cut in a shoddy transfer that was cropped to 1.78. You could get the theatrical cut Blu-ray in 2.35, with a recently recorded director's commentary. But never at the same time. And even when the German disc claimed deleted scenes, it didn't have all of them. The only option was the Lumivision laserdisc from 1996, which included a different commentary by director Simon Wincer (Free Willy, Harley Davidson and the Marlboro Man, Quigley Down Under), the trailer, and a clip from the 1940s film "40,000 Horsemen," also about the same situation covered in "The Lighthorsemen."

Well, I've transferred my laserdisc, and added Mario Millo's wonderful score as an option. You can listen to it as a single image slideshow as individual tracks or as a whole. This could have been done very easily with DVD Lab Pro, but, like the problems I had with my Sid & Nancy torrent, the words were blurry and hard to read, but this time I just found a workaround with DVDStyler. And then had to correct the workaround with, of all things, DVD Shrink.

The video transfer was wildly complicated, because the laserdisc was not perfectly authored when it was released, and the first 20 minutes or so were seemingly smushed. Add to that, the scenes cut from the director's cut were not well preserved, and so the color correction seems a bit off during some of those scenes (and there was a bit too much contrast). However, I'm fixed the aspect ratio issue, and there is a moderate adjustment after said 20 minute mark (give or take a few minutes) where the letterboxing slightly changes, but the image looks correct throughout. Otherwise, it's a laserdisc transfer made anamorphic, and all the analog haziness/softness inherent to laserdiscs is as it should be.



http://www.imdb.com/title/tt0093416/reference


Audio............: Dolby Digital 2.0/2.0
Subtitles........: English
Video Format.....: NTSC
Aspect Ratio.....: 2.35:1
DVD Format.......: Anamorphic
DVD Source.......: Laserdisc
DVD Distributor..: Custom
Program..........: DVD Styler/TMPEG Authoring Works 5
Average Bit Rate.: 7.6 Mb/sec

General
Complete name : Y:\THE_LIGHTHORSEMEN\Final Disc\VIDEO_TS\VTS_01_1.VOB
Format : MPEG-PS
File size : 1 024 MiB
Duration : 18mn 30s
Overall bit rate mode : Variable
Overall bit rate : 7 736 Kbps
Writing library : encoded by TMPGEnc Video Mastering Works 5 Version. 5.0.5.32

Video
ID : 224 (0xE0)
Format : MPEG Video
Format version : Version 2
Format profile : Main@Main
Format settings, BVOP : Yes
Format settings, Matrix : Custom
Format settings, GOP : M=3, N=18
Duration : 18mn 30s
Bit rate mode : Variable
Bit rate : 7 166 Kbps
Maximum bit rate : 8 000 Kbps
Width : 720 pixels
Height : 480 pixels
Display aspect ratio : 16:9
Frame rate : 29.970 fps
Standard : NTSC
Color space : YUV
Chroma subsampling : 4:2:0
Bit depth : 8 bits
Scan type : Progressive
Compression mode : Lossy
Bits/(Pixel*Frame) : 0.692
Time code of first frame : 00:00:00:00
Time code source : Group of pictures header
GOP, Open/Closed : Open
GOP, Open/Closed of first f : Closed
Stream size : 949 MiB (93%)
Writing library : TMPGEnc Video Mastering Works 5 Version. 5.0.5.32
Color primaries : BT.601 NTSC
Transfer characteristics : BT.601
Matrix coefficients : BT.601

Audio #1
ID : 189 (0xBD)-128 (0x80)
Format : AC-3
Format/Info : Audio Coding 3
Mode extension : CM (complete main)
Format settings, Endianness : Big
Muxing mode : DVD-Video
Duration : 18mn 30s
Bit rate mode : Constant
Bit rate : 224 Kbps
Channel(s) : 2 channels
Channel positions : Front: L R
Sampling rate : 48.0 KHz
Compression mode : Lossy
Stream size : 29.6 MiB (3%)

Audio #2
ID : 189 (0xBD)-129 (0x81)
Format : AC-3
Format/Info : Audio Coding 3
Mode extension : CM (complete main)
Format settings, Endianness : Big
Muxing mode : DVD-Video
Duration : 18mn 30s
Bit rate mode : Constant
Bit rate : 192 Kbps
Channel(s) : 2 channels
Channel positions : Front: L R
Sampling rate : 48.0 KHz
Compression mode : Lossy
Stream size : 25.4 MiB (2%)
Reply
Thanks given by:
#2
Never seen this one but heard of it many times. I assume the DC is the way to go for a first viewing?
For new members: Please do not ask where to get something. Participate in the forum, talk to people, make friends. Then someone will help you find what you want.
Reply
Thanks given by:


Possibly Related Threads...
Thread Author Replies Views Last Post
  Star Trek VI HDTV-sourced custom BD (theatrical) Chewtobacca 38 3,582 Yesterday, 07:31 PM
Last Post: Koopa Luath
  Alien Regrade (Fox THX Laserdisc) PDB 250 60,459 2017-06-10, 06:54 PM
Last Post: nafroe
  Blade Runner International Cut Regrade (Criterion Collection Laserdisc) PDB 42 11,589 2017-04-27, 05:38 PM
Last Post: PDB
  Star Wars laserdisc preservations. althor1138 0 400 2017-01-22, 09:43 PM
Last Post: althor1138
  The Alamo: Director's Cut [Ld Sourced + Extras] Elmo Oxygen 19 5,214 2016-10-27, 12:44 AM
Last Post: JessicaFaith84
  RotLA WOWOW-sourced custom BD Chewtobacca 22 4,867 2015-10-01, 04:32 AM
Last Post: Jetrell Fo
  Rear Window: HDTV-sourced custom BD (Harris Restoration) Chewtobacca 8 1,848 2015-09-21, 10:43 PM
Last Post: captainsolo
  Regraded Terminator 2 Judgement Day Director's Cut kk650 26 8,544 2015-06-18, 08:22 PM
Last Post: bendermac
  Regraded Once Upon a Time in America Extended Director's Cut (more colourful version) kk650 30 10,164 2015-06-01, 09:49 PM
Last Post: Revolverheld

Forum Jump:


Users browsing this thread: 1 Guest(s)